Today is a free download without charge Download

Другие ипостаси / Altered States (Кен Рассел / Ken Russell) [1980, США, Ужасы, фантастика, мистика, драма, BDRip 720p] MVO + DVO + AVO (С. Визгунов) + Sub Rus + Original Eng

Reply to topic
 
Author
Message

Omen ®

Longevity: 8 years 5 months

Posts: 181087

Торрент-статистика

Post 11-Apr-2013 19:10

[Quote]

Другие ипостаси / Altered States«When he heard his cry for help it wasn't human» Страна: США
Жанр: Ужасы, фантастика, мистика, драма
Год выпуска: 1980
Продолжительность: 01:42:44
Перевод: Профессиональный (многоголосый закадровый)
Перевод 2: Профессиональный (двухголосый закадровый)
Перевод 3: Авторский (одноголосый закадровый) С. Визгунов
Cубтитры: русские
Оригинальная аудиодорожка: английский
Режиссер: Кен Рассел / Ken Russell
В ролях: Уильям Хёрт, Блэр Браун, Боб Бэлабан, Чарльз Хейд, Таао Пенглис, Miguel Godreau, Дори Бреннер, Питер Брэндон, Чарльз Уайт-Игл, Дрю Бэрримор...
Описание: Ученый-естествоиспытатель Эдди Джессап верит в то, что измененные состояния сознания так же реальны, как наша повседневная действительность. Отключая органы чувств под действием галлюциногенных препаратов, он исследует другие ипостаси, лавируя в потоке своего сознания...

Тип релиза: BDRip 720p
Контейнер: MKV
Видео: MPEG-4 AVC Video, 1280 х 720 (16:9), 23,976 кадра/сек, 5010 Кбит/сек, 0.227 бит/пиксель
Аудио: Russian, Audio Coding 3, 48,0 КГц, 256 Кбит/сек, 2 канала (Front: L R) MVO
Аудио 2: Russian, Audio Coding 3, 48,0 КГц, 192 Кбит/сек, 2 канала (Front: L R) DVO
Аудио 3: Russian, DTS, 48,0 КГц, 1509 Кбит/сек, 6 каналов (Front: L C R, Side: L R, LFE) AVO
Аудио 4: English, DTS, 48,0 КГц, 1509 Кбит/сек, 6 каналов (Front: L C R, Side: L R, LFE)
Доп. информация:
  • Джон Лилли, который изобрел камеру сенсорной депривации и первым додумался принимать в ней наркотики, был профессиональным исследователем дельфинов.
  • Полная версия фильма имеет хронометраж 150 минут.
    Цитата:
  • Сохранены оригинальные чаптеры как на Blu-ray.
  • MVO и DVO с рутрекера.
  • За русские субтитры спасибо feather32.

MediaInfo

Общее
Уникальный идентификатор : 212335406714823138795407021964129115898 (0x9FBE4FD26CA7AB70BBA6BB8BE07E9EFA)
Полное имя : E:\torrent\Другие ипостаси BDRip 720p.mkv
Формат : Matroska
Версия формата : Version 2
Размер файла : 6,08 Гбайт
Продолжительность : 1 ч. 42 м.
Общий поток : 8477 Кбит/сек
Название фильма : Altered.States.1980.720p.BluRay.3xRus.2xEng.HDCLUB
Дата кодирования : UTC 2012-07-14 19:00:31
Программа кодирования : mkvmerge v4.9.1 ('Ich will') сборка от Jul 11 2011 23:53:15
Библиотека кодирования : libebml v1.2.1 + libmatroska v1.1.1
Видео
Идентификатор : 1
Формат : AVC
Формат/Информация : Advanced Video Codec
Профиль формата : [email protected]
Параметр CABAC формата : Да
Параметр ReFrames формата : 8 кадров
Идентификатор кодека : V_MPEG4/ISO/AVC
Продолжительность : 1 ч. 42 м.
Битрейт : 5010 Кбит/сек
Ширина : 1280 пикселей
Высота : 720 пикселей
Соотношение сторон : 16:9
Режим частоты кадров : Постоянный
Частота кадров : 23,976 кадра/сек
Цветовое пространство : YUV
Субдискретизация насыщенности : 4:2:0
Битовая глубина : 8 бит
Тип развёртки : Прогрессивная
Бит/(Пиксели*Кадры) : 0.227
Размер потока : 3,48 Гбайт (57%)
Заголовок : Altered.States.1980.Blu-ray.720p.x264.DTS.MySilu
Библиотека кодирования : x264 core 125 r2200 999b753
Настройки программы : cabac=1 / ref=8 / deblock=1:-2:-2 / analyse=0x3:0x133 / me=umh / subme=9 / psy=1 / psy_rd=1.20:0.20 / mixed_ref=1 / me_range=16 / chroma_me=1 / trellis=2 / 8x8dct=1 / cqm=0 / deadzone=21,11 / fast_pskip=1 / chroma_qp_offset=-3 / threads=9 / lookahead_threads=1 / sliced_threads=0 / nr=0 / decimate=0 / interlaced=0 / bluray_compat=0 / constrained_intra=0 / bframes=3 / b_pyramid=2 / b_adapt=2 / b_bias=0 / direct=3 / weightb=1 / open_gop=0 / weightp=2 / keyint=240 / keyint_min=1 / scenecut=40 / intra_refresh=0 / rc_lookahead=60 / rc=2pass / mbtree=1 / bitrate=5010 / ratetol=1.0 / qcomp=0.60 / qpmin=10 / qpmax=51 / qpstep=4 / cplxblur=20.0 / qblur=0.5 / vbv_maxrate=38000 / vbv_bufsize=38000 / nal_hrd=none / ip_ratio=1.40 / aq=1:1.00
Язык : English
Default : Да
Forced : Нет
Аудио #1
Идентификатор : 2
Формат : AC-3
Формат/Информация : Audio Coding 3
Расширение режима : CM (complete main)
Параметр Endianness формата : Big
Идентификатор кодека : A_AC3
Продолжительность : 1 ч. 42 м.
Вид битрейта : Постоянный
Битрейт : 256 Кбит/сек
Каналы : 2 канала
Расположение каналов : Front: L R
Частота : 48,0 КГц
Битовая глубина : 16 бит
Метод сжатия : С потерями
Размер потока : 188 Мбайт (3%)
Заголовок : MVO
Язык : Russian
Default : Нет
Forced : Нет
Аудио #2
Идентификатор : 3
Формат : AC-3
Формат/Информация : Audio Coding 3
Расширение режима : CM (complete main)
Параметр Endianness формата : Big
Идентификатор кодека : A_AC3
Продолжительность : 1 ч. 42 м.
Вид битрейта : Постоянный
Битрейт : 192 Кбит/сек
Каналы : 2 канала
Расположение каналов : Front: L R
Частота : 48,0 КГц
Битовая глубина : 16 бит
Метод сжатия : С потерями
Размер потока : 141 Мбайт (2%)
Заголовок : DVO
Язык : Russian
Default : Нет
Forced : Нет
Аудио #3
Идентификатор : 4
Формат : DTS
Формат/Информация : Digital Theater Systems
Режим : 16
Параметр Endianness формата : Big
Идентификатор кодека : A_DTS
Продолжительность : 1 ч. 42 м.
Вид битрейта : Постоянный
Битрейт : 1509 Кбит/сек
Каналы : 6 каналов
Расположение каналов : Front: L C R, Side: L R, LFE
Частота : 48,0 КГц
Битовая глубина : 24 бит
Метод сжатия : С потерями
Размер потока : 1,08 Гбайт (18%)
Заголовок : AVO [Сергей Визгунов]
Язык : Russian
Default : Нет
Forced : Нет
Аудио #4
Идентификатор : 5
Формат : DTS
Формат/Информация : Digital Theater Systems
Режим : 16
Параметр Endianness формата : Big
Идентификатор кодека : A_DTS
Продолжительность : 1 ч. 42 м.
Вид битрейта : Постоянный
Битрейт : 1509 Кбит/сек
Каналы : 6 каналов
Расположение каналов : Front: L C R, Side: L R, LFE
Частота : 48,0 КГц
Битовая глубина : 24 бит
Метод сжатия : С потерями
Размер потока : 1,08 Гбайт (18%)
Язык : English
Default : Нет
Forced : Нет
Текст #1
Идентификатор : 6
Формат : UTF-8
Идентификатор кодека : S_TEXT/UTF8
Идентификатор кодека/Информация : UTF-8 Plain Text
Язык : Russian
Default : Нет
Forced : Нет
Текст #2
Идентификатор : 7
Формат : UTF-8
Идентификатор кодека : S_TEXT/UTF8
Идентификатор кодека/Информация : UTF-8 Plain Text
Язык : English
Default : Нет
Forced : Нет
Меню
00:00:00.000 : en:00:00:00.000
00:02:17.888 : en:00:02:17.888
00:03:48.603 : en:00:03:48.603
00:06:39.733 : en:00:06:39.733
00:09:08.506 : en:00:09:08.506
00:13:09.622 : en:00:13:09.622
00:15:05.446 : en:00:15:05.446
00:19:04.727 : en:00:19:04.727
00:23:42.129 : en:00:23:42.129
00:25:28.610 : en:00:25:28.610
00:28:14.610 : en:00:28:14.610
00:30:41.131 : en:00:30:41.131
00:37:03.054 : en:00:37:03.054
00:42:38.848 : en:00:42:38.848
00:46:23.197 : en:00:46:23.197
00:49:39.101 : en:00:49:39.101
00:53:06.725 : en:00:53:06.725
00:56:37.477 : en:00:56:37.477
01:01:37.944 : en:01:01:37.944
01:04:51.638 : en:01:04:51.638
01:09:23.993 : en:01:09:23.993
01:13:17.977 : en:01:13:17.977
01:17:04.370 : en:01:17:04.370
01:20:58.604 : en:01:20:58.604
01:24:02.871 : en:01:24:02.871
01:30:02.355 : en:01:30:02.355
01:33:05.872 : en:01:33:05.872
01:35:18.129 : en:01:35:18.129
01:37:37.185 : en:01:37:37.185
01:39:09.235 : en:01:39:09.235
01:39:54.322 : en:01:39:54.322

Скриншоты

Other forum [Profile] [PM]
Display posts from previous:    
Reply to topic

The time now is: Today 11:14

All times are GMT + 3 Hours



You cannot post new topics in this forum
You cannot reply to topics in this forum
You cannot edit your posts in this forum
You cannot delete your posts in this forum
You cannot vote in polls in this forum
You cannot attach files in this forum
You cannot download files in this forum