Today is a free download without charge Download

Зной Явы / Java Heat (Конор Эллин / Conor Allyn) [2013, США, боевик, триллер, драма, криминал, BDRip 720p] VO (den904) + 2xSub (Rus, Eng) + Original Eng

Reply to topic
 
Author
Message

Omen ®

Longevity: 8 years 5 months

Posts: 181087

Торрент-статистика

Post 11-Apr-2013 15:02

[Quote]

Зной Явы / Java Heat
Страна: США
Жанр: боевик, триллер, драма, криминал
Год выпуска: 2013
Продолжительность: 01:43:46
Перевод: Одноголосый закадровый den904
Cубтитры: русские, английские
Оригинальная аудиодорожка: английский
-
Режиссер: Конор Эллин / Conor Allyn
В ролях: Келлан Латс, Микки Рурк, Арио Баю, Тио Пакусодево, Атика Хасихолан, Верди Солайман, Рахайу Сарасвати, Майкл Дункан, Агунг Удиджана, Рио Деванто
-
Описание: В картине речь идет о молодом американце по имени Джейк, который приезжает в Юго-Восточную Азию, чтобы сражаться с исламскими террористами. В компании с местным детективом-мусульманином он преследует изобретательного вора, который специально организовывает взрывы и похищения, чтобы осуществлять кражи драгоценностей, произведений искусства, а также маленьких мальчиков и даже одной принцессы.

Тип релиза: BDRip 720p
Контейнер: MKV
Видео: H264 / NTSC 16:9 / 1280x544 (2,35:1) / 6347 kbps / 23,976 fps / 0.380 bit/pixel / [email protected]
Аудио 1: Russian / AC3 / 48 kHz / 5.1 Ch / 448 kbps / 16 bit / VO
Аудио 2: English / DTS / 48 kHz / 5.1 Ch / 755 kbps / 16 bit / Original
Формат субтитров: softsub (SRT)
Навигация по главам: есть

MediaInfo

Общее
Уникальный идентификатор : 201200675674116322769520602247831073539 (0x975DD7324B3698229F4FC196CFE1B303)
Полное имя : W:\BDRip 720p\Java Heat.2013.BDRip.720p.mkv
Формат : Matroska
Версия формата : Version 4 / Version 2
Размер файла : 5,47 Гбайт
Продолжительность : 1 ч. 43 м.
Общий поток : 7552 Кбит/сек
Дата кодирования : UTC 2013-04-11 08:53:36
Программа кодирования : mkvmerge v6.1.0 ('Old Devil') built on Mar 2 2013 14:32:37
Библиотека кодирования : libebml v1.3.0 + libmatroska v1.4.0
Видео
Идентификатор : 1
Формат : AVC
Формат/Информация : Advanced Video Codec
Профиль формата : [email protected]
Параметр CABAC формата : Да
Параметр ReFrames формата : 12 кадров
Идентификатор кодека : V_MPEG4/ISO/AVC
Битрейт : 6347 Кбит/сек
Ширина : 1280 пикселей
Высота : 544 пикселя
Соотношение сторон : 2,35:1
Режим частоты кадров : Переменный
Частота кадров в оригинале : 23,976 кадра/сек
Цветовое пространство : YUV
Субдискретизация насыщенности : 4:2:0
Битовая глубина : 8 бит
Тип развёртки : Прогрессивная
Бит/(Пиксели*Кадры) : 0.380
Библиотека кодирования : x264 core 130 r2273 b3065e6
Настройки программы : cabac=1 / ref=12 / deblock=1:-3:-3 / analyse=0x3:0x133 / me=umh / subme=10 / psy=1 / psy_rd=1.00:0.10 / mixed_ref=1 / me_range=48 / chroma_me=1 / trellis=2 / 8x8dct=1 / cqm=0 / deadzone=21,11 / fast_pskip=0 / chroma_qp_offset=-3 / threads=12 / lookahead_threads=1 / sliced_threads=0 / nr=0 / decimate=0 / interlaced=0 / bluray_compat=0 / constrained_intra=0 / bframes=8 / b_pyramid=2 / b_adapt=2 / b_bias=0 / direct=3 / weightb=1 / open_gop=0 / weightp=2 / keyint=360 / keyint_min=2 / scenecut=40 / intra_refresh=0 / rc_lookahead=60 / rc=2pass / mbtree=1 / bitrate=6347 / ratetol=1.0 / qcomp=0.70 / qpmin=0 / qpmax=69 / qpstep=4 / cplxblur=20.0 / qblur=0.5 / vbv_maxrate=50000 / vbv_bufsize=30000 / nal_hrd=none / ip_ratio=1.10 / aq=2:1.00
Язык : English
Default : Да
Forced : Нет
Аудио #1
Идентификатор : 2
Формат : AC-3
Формат/Информация : Audio Coding 3
Расширение режима : CM (complete main)
Параметр Endianness формата : Big
Идентификатор кодека : A_AC3
Продолжительность : 1 ч. 43 м.
Вид битрейта : Постоянный
Битрейт : 448 Кбит/сек
Каналы : 6 каналов
Расположение каналов : Front: L C R, Side: L R, LFE
Частота : 48,0 КГц
Битовая глубина : 16 бит
Метод сжатия : С потерями
Размер потока : 333 Мбайт (6%)
Заголовок : VO / den904
Язык : Russian
Default : Да
Forced : Нет
Аудио #2
Идентификатор : 3
Формат : DTS
Формат/Информация : Digital Theater Systems
Идентификатор кодека : A_DTS
Продолжительность : 1 ч. 43 м.
Вид битрейта : Постоянный
Битрейт : 755 Кбит/сек
Каналы : 6 каналов
Расположение каналов : Front: L C R, Side: L R, LFE
Частота : 48,0 КГц
Битовая глубина : 16 бит
Метод сжатия : С потерями
Размер потока : 560 Мбайт (10%)
Заголовок : Original
Язык : English
Default : Нет
Forced : Нет
Текст #1
Идентификатор : 4
Формат : UTF-8
Идентификатор кодека : S_TEXT/UTF8
Идентификатор кодека/Информация : UTF-8 Plain Text
Заголовок : RUS / kon2011
Язык : Russian
Default : Нет
Forced : Нет
Текст #2
Идентификатор : 5
Формат : UTF-8
Идентификатор кодека : S_TEXT/UTF8
Идентификатор кодека/Информация : UTF-8 Plain Text
Заголовок : Original
Язык : English
Default : Нет
Forced : Нет
Меню
00:00:00.000 : en:00:00:00.000
00:00:58.267 : en:00:00:58.267
00:10:54.237 : en:00:10:54.237
00:18:57.636 : en:00:18:57.636
00:31:08.158 : en:00:31:08.158
00:41:59.934 : en:00:41:59.934
00:50:22.937 : en:00:50:22.937
01:00:12.943 : en:01:00:12.943
01:09:59.320 : en:01:09:59.320
01:21:57.621 : en:01:21:57.621
01:35:30.308 : en:01:35:30.308
01:38:19.769 : en:01:38:19.769

Скриншоты

Other forum [Profile] [PM]
Display posts from previous:    
Reply to topic

The time now is: Today 05:05

All times are GMT + 3 Hours



You cannot post new topics in this forum
You cannot reply to topics in this forum
You cannot edit your posts in this forum
You cannot delete your posts in this forum
You cannot vote in polls in this forum
You cannot attach files in this forum
You cannot download files in this forum