Today is a free download without charge Download

Рипо! Генетическая опера / Repo! The Genetic Opera (Даррен Линн Боусман / Darren Lynn Bousman) [2008, Киберпанк, фантастика, драма, мюзикл, опера, BDRip 1080p] MVO

Reply to topic
 
Author
Message

Omen ®

Longevity: 8 years 5 months

Posts: 181087

Торрент-статистика

Post 11-Apr-2013 15:02

[Quote]

Генетическая опера / Repo! The Genetic Opera-Год выпуска: 2008
Страна: США
Жанр: Киберпанк, фантастика, драма, мюзикл, рок-опера
Продолжительность: 01:37:47
Перевод: многоголосый
Субтитры: Русские (Стилизованные), Английские
Режиссер: Даррен Линн Боусман /Darren Lynn Bousman/ («Пила 2/3/4»)
В ролях Алекса Вега /Alexa Vega , Пол Сорвино /Paul Sorvino/ ), Энтони Хэд /Anthony Head, Сара Брайтман /Sarah Brightman, Пэрис Хилтон /Paris Hilton/, Билл Моусли /Bill Moseley, Нивек Огре /Nivek Ogre, Терренс Здунич /Terrance Zdunich, Сара Пауэр /Sarah Power, Джессика Хорн /Jessica Horn-Описание:
Действие фильма происходит в 2056 году. На Землю обрушивается пандемия отказа органов у людей. Биотехнологическая корпорация «GeneCo» приходит на помощь, осуществляя трансплантацию искусственных органов, но, естественно, не бесплатно. Тех, кто запаздывает с платежем на три месяца ожидает ужасная участь — «GeneCo» присылает к ним безжалостного «Конфискатора» (англ. Repossession (Repo) Man), чья задача — возвращать компании неоплаченные органы — разумеется, ценой жизни несостоятельного должника. Такое убийство считается в обществе будущего абсолютно законным, а изъятые органы пересаживаются другим пациентам. Несмотря на законность своей деятельности, конфискаторы предпочитают анонимность, а потому пользуются масками и костюмами, полностью скрывающими их внешность.
-Тип релиза: BDRip 1080р (исходник: Repo! The Genetic Opera 2008 Blu-ray 1080p VC-1 DTS-HD 7 1)
Контейнер: MKV (Sample)
Видео: H.264, 23.976 fps, 1920х1040р (1.85), 10000 kbps
Звук #1: Английский (Оригинал)) DTS 5.1, 48 KHz, 24 bit, 1536 kbps
Звук #2: Русский (профессиональный, многоголосый, закадровый) AC3 5.1, 48 KHz, 24 bit, 1536 kbps |студия "Kravec"|(С Диска С.Р.И)
Звук #3: Английский (многоголосый, закадровый) AC3 5.1, 48 KHz, 24 bit, 224 kbps |комментарии №1 (Даррен Линн Боусман, Билл Моусли, Алекса Вега, Нивек Огре)|
Звук #4: Английский (многоголосый, закадровый) AC3 5.1, 48 KHz, 24 bit, 224 kbps, |комментарии №2 (Даррен Линн Боусман, Даррен Смит, Терренс Здунич, Джозеф Бишара)|
Субтитры: Русский - Стилизованные! (Gord_Tremor), Русский (А.А.Альбинский), Русский (Марджи Этта) Английский - Стилизованные!
Главы: Есть, подписаны
Формат субтитров: softsub (SRT/ASS)
Цитата:
  • Спасибо shellgen за стилизованные субтитры. Спасибо MaLLIeHbKa (взяты с ёё раздачи). Спасибо psicho за диск С.Р.И
По скольку это мюзикл, то в общем-то русскоязычный перевод песен не очень нужен. По этой причине англ. дорога стоит первая и включены стилизованные русские субтитры.
Source vs Encode

Mediainfo

Format version : Version 4 / Version 2
File size : 9.20 GiB
Duration : 1h 37mn
Overall bit rate : 13.5 Mbps
Movie name : AngeL / Angel9
Encoded date : UTC 2013-04-11 07:46:03
Writing application : mkvmerge v6.1.0 ('Old Devil') built on Mar 2 2013 14:32:37
Writing library : libebml v1.3.0 + libmatroska v1.4.0
Attachment : Yes / Yes / Yes / Yes / Yes
Video
ID : 1
Format : AVC
Format/Info : Advanced Video Codec
Format profile : [email protected]
Format settings, CABAC : Yes
Format settings, ReFrames : 4 frames
Codec ID : V_MPEG4/ISO/AVC
Duration : 1h 37mn
Bit rate : 10 000 Kbps
Width : 1 920 pixels
Height : 1 040 pixels
Display aspect ratio : 1.85:1
Frame rate mode : Constant
Frame rate : 23.976 fps
Color space : YUV
Chroma subsampling : 4:2:0
Bit depth : 8 bits
Scan type : Progressive
Bits/(Pixel*Frame) : 0.209
Stream size : 6.64 GiB (72%)
Title : Repo!.The.Genetic.Opera.2008.BDRip.1080p.x264-AngeL
Writing library : x264 core 130 r2273 b3065e6
Encoding settings : cabac=1 / ref=4 / deblock=1:-2:-1 / analyse=0x3:0x113 / me=tesa / subme=10 / psy=1 / psy_rd=1.00:0.00 / mixed_ref=1 / me_range=16 / chroma_me=1 / trellis=2 / 8x8dct=1 / cqm=0 / deadzone=21,11 / fast_pskip=0 / chroma_qp_offset=-2 / threads=18 / lookahead_threads=1 / sliced_threads=0 / nr=0 / decimate=0 / interlaced=0 / bluray_compat=0 / constrained_intra=0 / bframes=9 / b_pyramid=2 / b_adapt=2 / b_bias=0 / direct=3 / weightb=1 / open_gop=0 / weightp=2 / keyint=250 / keyint_min=23 / scenecut=40 / intra_refresh=0 / rc=2pass / mbtree=0 / bitrate=10000 / ratetol=1.0 / qcomp=0.60 / qpmin=0 / qpmax=69 / qpstep=4 / cplxblur=20.0 / qblur=0.5 / ip_ratio=1.40 / pb_ratio=1.30 / aq=2:0.80
Language : English
Default : Yes
Forced : No
Audio #1
ID : 2
Format : DTS
Format/Info : Digital Theater Systems
Mode : 16
Format settings, Endianness : Big
Codec ID : A_DTS
Duration : 1h 37mn
Bit rate mode : Constant
Bit rate : 1 509 Kbps
Channel(s) : 6 channels
Channel positions : Front: L C R, Side: L R, LFE
Sampling rate : 48.0 KHz
Bit depth : 24 bits
Compression mode : Lossy
Stream size : 1.03 GiB (11%)
Title : (Original) DTS [email protected] kHz, 24 bit, 1536 kbps
Language : English
Default : Yes
Forced : No
Audio #2
ID : 3
Format : DTS
Format/Info : Digital Theater Systems
Mode : 16
Format settings, Endianness : Big
Codec ID : A_DTS
Duration : 1h 37mn
Bit rate mode : Constant
Bit rate : 1 510 Kbps
Channel(s) : 6 channels
Channel positions : Front: L C R, Side: L R, LFE
Sampling rate : 48.0 KHz
Bit depth : 24 bits
Compression mode : Lossy
Stream size : 1.03 GiB (11%)
Title : (Kravec) DTS [email protected] kHz, 24 bit, 1536 kbps
Language : Russian
Default : No
Forced : No
Audio #3
ID : 4
Format : AC-3
Format/Info : Audio Coding 3
Format profile : Dolby Digital
Mode extension : CM (complete main)
Format settings, Endianness : Big
Codec ID : A_AC3
Duration : 1h 37mn
Bit rate mode : Constant
Bit rate : 224 Kbps
Channel(s) : 2 channels
Channel positions : Front: L R
Sampling rate : 48.0 KHz
Bit depth : 16 bits
Compression mode : Lossy
Stream size : 157 MiB (2%)
Title : Commentary [email protected], 48 kHz, 224 kbps
Language : English
Default : No
Forced : No
Audio #4
ID : 5
Format : AC-3
Format/Info : Audio Coding 3
Format profile : Dolby Digital
Mode extension : CM (complete main)
Format settings, Endianness : Big
Codec ID : A_AC3
Duration : 1h 37mn
Bit rate mode : Constant
Bit rate : 224 Kbps
Channel(s) : 2 channels
Channel positions : Front: L R
Sampling rate : 48.0 KHz
Bit depth : 16 bits
Compression mode : Lossy
Stream size : 157 MiB (2%)
Title : Commentary [email protected], 48 kHz, 224 kbps
Language : English
Default : No
Forced : No
Text #1
ID : 6
Format : ASS
Codec ID : S_TEXT/ASS
Codec ID/Info : Advanced Sub Station Alpha
Compression mode : Lossless
Title : RUS Gord_Tremor ASS/UTF8
Language : Russian
Default : Yes
Forced : No
Text #2
ID : 7
Format : UTF-8
Codec ID : S_TEXT/UTF8
Codec ID/Info : UTF-8 Plain Text
Title : RUS Gord_Tremor SRT/UTF8
Language : Russian
Default : No
Forced : No
Text #3
ID : 8
Format : UTF-8
Codec ID : S_TEXT/UTF8
Codec ID/Info : UTF-8 Plain Text
Title : RUS Albin SRT/UTF8
Language : Russian
Default : No
Forced : No
Text #4
ID : 9
Format : UTF-8
Codec ID : S_TEXT/UTF8
Codec ID/Info : UTF-8 Plain Text
Title : RUS Margietta SRT/UTF8
Language : Russian
Default : No
Forced : No
Text #5
ID : 10
Format : ASS
Codec ID : S_TEXT/ASS
Codec ID/Info : Advanced Sub Station Alpha
Compression mode : Lossless
Title : ENG ASS/UTF8
Language : English
Default : No
Forced : No
Text #6
ID : 11
Format : UTF-8
Codec ID : S_TEXT/UTF8
Codec ID/Info : UTF-8 Plain Text
Title : ENG SRT/UTF8
Language : English
Default : No
Forced : No
Menu
00:00:00.000 : en:An Epidemic of Organ Failures
00:03:15.821 : en:Genetic Repo Man
00:07:35.455 : en:Things You See in a Graveyard
00:19:25.206 : en:Legal Assassin
00:23:03.674 : en:Mark It Up
00:29:58.922 : en:Thankless Job
00:37:05.223 : en:Payment Past Due
00:40:34.974 : en:Zydrate Anatomy
00:48:33.202 : en:Night Surgeon
00:51:11.360 : en:Chase the Morning
00:57:16.725 : en:Seventeen
01:05:15.328 : en:At the Opera Tonight
01:08:21.222 : en:Testify!
01:12:44.360 : en:Chromaggia
01:16:47.937 : en:Let the Monster Rise
01:24:58.427 : en:I Didn't Know I'd Love You So Much
01:28:21.296 : en:Genetic Emancipation
01:31:31.236 : en:Geneco's Story Continues...
Релиз группы:
Other forum [Profile] [PM]
Display posts from previous:    
Reply to topic

The time now is: Today 12:39

All times are GMT + 3 Hours



You cannot post new topics in this forum
You cannot reply to topics in this forum
You cannot edit your posts in this forum
You cannot delete your posts in this forum
You cannot vote in polls in this forum
You cannot attach files in this forum
You cannot download files in this forum