Today is a free download without charge Download

Большое ограбление Маппетов / The Great Muppet Caper (Джим Хенсон / Jim Henson) [1981, Великобритания, мюзикл, комедия, семейный, музыка, WEB-DL 1080p] AVO (Алексеев) + Original (ENG)

Reply to topic
 
Author
Message

Omen ®

Longevity: 8 years 5 months

Posts: 181087

Торрент-статистика

Post 11-Apr-2013 15:02

[Quote]

Большое ограбление Маппетов
The Great Muppet Caper
Страна: Великобритания
Год выпуска: 1981
Жанр: мюзикл, комедия, семейный, музыка
Продолжительность: 01:37:53
Перевод: Авторский (одноголосый закадровый) - Антон Алексеев
субтитры: отсутствуют
оригинальная аудиодорожка: английская-Режиссёр: Джим Хенсон : Jim Henson
В главных ролях: Джим Хенсон, Фрэнк Оз, Дэйв Гольц, Джерри Нельсон, Ричард Хант, Чарльз Гродин, Дайана Ригг, Джон Клиз, Роберт Морли. Питер Устинов-Описание: Кермит и Фоззи оказываются близнецами, которых все путают (тем, кто помнит, кто это такие, уже должно быть смешно). Они устраиваются на работу в газету где-то в США и сразу получают опасное задание: расследовать похищение драгоценностей у королевы моды леди Холлидей. Для этого отважные репортёры едут в Лондон, где объединяются с коммуной маппетов. Злодеи же, три красотки-манекенщицы и брат леди Холлидей, Ники (табличка на двери его кабинета сообщает «Ники — безответственный паразит»), не дремлют. Их план — похитить огромный бриллиант, но прежде надо отвести от себя подозрения и подставить секретаршу леди Холлидей, мисс Пигги, как воровку. Только маппетам по силам остановить преступников…-
- нет возрастных ограничений-Качество: WEB-DL 1080p
Формат: MKV
Видео кодек: AVC
Аудио кодек: AC3
Видео: 1900x1034, 23,976 fps, ~5 134 kbps avg, 0.109 bit/pixel
Аудио #1: 48.0 kHz, AC3 Dolby Digital, 2 ch, ~192 kbps (AVO)
Аудио #2: 48.0 kHz, AC3 Dolby Digital, 6 ch, ~384 kbps (ENG)
навигация по главам: 18 глав (именные)

Скриншоты

MediaInfo

Общее
Уникальный идентификатор : 172728038143791715642581876401033233861 (0x81F235C86F405C54935DABE71B6CC5C5)
Полное имя : D:\Im\Большое ограбление Маппетов\The Great Muppet Caper.1981.WEB-DL 1080p.mkv
Формат : Matroska
Версия формата : Version 4 / Version 2
Размер файла : 3,98 Гбайт
Продолжительность : 1 ч. 37 м.
Общий поток : 5826 Кбит/сек
Дата кодирования : UTC 2013-04-11 08:04:45
Программа кодирования : mkvmerge v6.1.0 ('Old Devil') built on Mar 2 2013 14:32:37
Библиотека кодирования : libebml v1.3.0 + libmatroska v1.4.0
Видео
Идентификатор : 1
Формат : AVC
Формат/Информация : Advanced Video Codec
Профиль формата : [email protected]
Параметр CABAC формата : Да
Параметр ReFrames формата : 4 кадра
Идентификатор кодека : V_MPEG4/ISO/AVC
Продолжительность : 1 ч. 37 м.
Битрейт : 5134 Кбит/сек
Ширина : 1900 пикселей
Высота : 1034 пикселя
Соотношение сторон : 16:9
Частота кадров : 23,976 кадра/сек
Цветовое пространство : YUV
Субдискретизация насыщенности : 4:2:0
Битовая глубина : 8 бит
Тип развёртки : Прогрессивная
Бит/(Пиксели*Кадры) : 0.109
Размер потока : 3,51 Гбайт (88%)
Язык : English
Default : Да
Forced : Нет
Основные цвета : BT.709-5, BT.1361, IEC 61966-2-4, SMPTE RP177
Характеристики трансфера : BT.709-5, BT.1361
Коэффициенты матрицы : BT.709-5, BT.1361, IEC 61966-2-4 709, SMPTE RP177
Аудио #1
Идентификатор : 2
Формат : AC-3
Формат/Информация : Audio Coding 3
Расширение режима : CM (complete main)
Идентификатор кодека : A_AC3
Продолжительность : 1 ч. 37 м.
Вид битрейта : Постоянный
Битрейт : 192 Кбит/сек
Каналы : 2 канала
Расположение каналов : Front: L R
Частота : 48,0 КГц
Битовая глубина : 16 бит
Метод сжатия : С потерями
Размер потока : 134 Мбайт (3%)
Заголовок : AVO [Антон Алексеев]
Язык : Russian
Default : Да
Forced : Нет
Аудио #2
Идентификатор : 3
Формат : AC-3
Формат/Информация : Audio Coding 3
Расширение режима : CM (complete main)
Идентификатор кодека : A_AC3
Продолжительность : 1 ч. 37 м.
Вид битрейта : Постоянный
Битрейт : 384 Кбит/сек
Каналы : 6 каналов
Расположение каналов : Front: L C R, Side: L R, LFE
Частота : 48,0 КГц
Битовая глубина : 16 бит
Метод сжатия : С потерями
Размер потока : 269 Мбайт (7%)
Заголовок : ENG
Язык : English
Default : Нет
Forced : Нет
Меню
00:00:00.000 : en:Main Title
00:05:51.000 : en:"Happiness Hotel"
00:17:17.000 : en:Lady Holiday's Office
00:25:30.000 : en:"Steppin' Out With A Star"
00:33:13.000 : en:At 17 Highbrow Street
00:42:19.000 : en:Double Date
00:52:14.000 : en:In The Park
01:02:02.000 : en:"Piggy's Fantasy"
01:10:45.000 : en:Pig In The Pokey
01:19:24.000 : en:At The Mallory Gallery
01:25:14.000 : en:Foiling The Heist
01:34:03.000 : en:End Credits
Не забываем оставлять комментарии к релизу, мне интересно Ваше мнение!
Other forum [Profile] [PM]
Similar theme
Forum Topic Author Torrent Replies Last Post
./templates/default/images/folder_dl.gif Фантастика, фэнтези, ужасы, мистика Мария Стрелова | Метро 2033: Нас больше нет (2018) [FB2] }{@R0N
1 | 0

0 | 688

1

2018-08-05 12:54
}{@R0N Latest
Display posts from previous:    
Reply to topic

The time now is: Today 10:09

All times are GMT + 3 Hours



You cannot post new topics in this forum
You cannot reply to topics in this forum
You cannot edit your posts in this forum
You cannot delete your posts in this forum
You cannot vote in polls in this forum
You cannot attach files in this forum
You cannot download files in this forum