Today is a free download without charge Download

The Killers - Live at Lollapalooza Festival 2013 [2013, Pop/Soft Rock, HDTV 1080i]

Reply to topic
 
Author
Message

Omen ®

Longevity: 8 years 4 months

Posts: 181087

Торрент-статистика

Post 11-Apr-2013 06:50

[Quote]

The Killers - Live at Lollapalooza Festival 2013
Жанр: Pop/Soft Rock
Продолжительность: 01:25:24
Год выпуска: 2013
Описание:
Live at Lollapalooza Festival 2013
Brazil, March 29
Set List:
01. Mr. Brightside
02. Spaceman
03. The Way it Was
04. Smile Like You Mean It
05. Miss Atomic Bomb
06. Human
07. Somebody Told Me
08. For Reasons unknow
09. From here On Out
10. A Dustland Fairytale
11. Read My Mind
12. Runaways
13. All These Things Tha I've Done
14. This Is Your Life
15. Jenny was A Friend of Mine
16. When You Were Young
Качество: HDTV 1080i
Контейнер: TS
Видео кодек: H.264
Аудио кодек: AC3
Видео: H.264 1920x1080 16:9 8599Kbps 29.970fps
Аудио: AC3 384kbps 48kHz 5.1ch

Отчёт MediaInfo / BDInfo

ОбщееИдентификатор : 1 (0x1)Полное имя : E:\Downloads\The.Killers.Live.in.Lollapalooza.Brazil.2013.1080p.HDTV.tsФормат : MPEG-TSРазмер файла : 5,13 ГбайтПродолжительность : 1 ч. 25 м.Общий поток : 8599 Кбит/сек
ВидеоИдентификатор : 4133 (0x1025)Идентификатор меню : 1 (0x1)Формат : AVCФормат/Информация : Advanced Video CodecПрофиль формата : [email protected]Параметр CABAC формата : ДаПараметр ReFrames формата : 4 кадраИдентификатор кодека : 27Продолжительность : 1 ч. 25 м.Битрейт : 7787 Кбит/секШирина : 1920 пикселейВысота : 1080 пикселейСоотношение сторон : 16:9Частота кадров : 29,970 кадров/секЦветовое пространство : YUVСубдискретизация насыщенности : 4:2:0Битовая глубина : 8 битТип развёртки : ЧересстрочнаяПорядок развёртки : Верхнее поле первоеБит/(Пиксели*Кадры) : 0.125Размер потока : 4,64 Гбайт (91%)Основные цвета : BT.709Характеристики трансфера : BT.709Коэффициенты матрицы : BT.709
АудиоИдентификатор : 4131 (0x1023)Идентификатор меню : 1 (0x1)Формат : AC-3Формат/Информация : Audio Coding 3Расширение режима : CM (complete main)Параметр Endianness формата : BigИдентификатор кодека : 6Продолжительность : 1 ч. 25 м.Вид битрейта : ПостоянныйБитрейт : 384 Кбит/секКаналы : 5 каналовРасположение каналов : Front: L C R, Side: L RЧастота : 48,0 КГцБитовая глубина : 16 битМетод сжатия : С потерямиРазмер потока : 235 Мбайт (4%)Язык : Portuguese

Скриншоты



Other forum [Profile] [PM]
Display posts from previous:    
Reply to topic

The time now is: Today 15:45

All times are GMT + 3 Hours



You cannot post new topics in this forum
You cannot reply to topics in this forum
You cannot edit your posts in this forum
You cannot delete your posts in this forum
You cannot vote in polls in this forum
You cannot attach files in this forum
You cannot download files in this forum