Today is a free download without charge Download

Неравный брак / Сезон: 2 / Серии: 85-??? из 150 (Виталий Бабенко, Сергей Терещук, Лев Гришин) [2013, мелодрама, SATRip]

Reply to topic
 
Author
Message

Omen ®

Longevity: 9 years 1 month

Posts: 181086

Торрент-статистика

Post 11-Apr-2013 02:48

[Quote]

Неравный брак
Год выпуска: 2013
Производство: ООО «ТелеРоман»
Жанр: мелодрама
Продолжительность: ~0:50:00 серия
Субтитры: отсутствуют
Режиссёр: Виталий Бабенко, Сергей Терещук, Лев Гришин
В ролях: Александр Кузнецов, Дмитрий Брусникин, Алла Довлатова, Елена Костина, Сергей Барковский, Владимир Денисов, Олег Семисынов, Мария Антипова, Иван Иванов, Виктория Полторак, Павел Климов, Анна Антонелли, Алексей Маслодудов, Олег Соловьев, Татьяна Горчакова, Александр Толмачев, Ангелина Притуманова, Самсон Ревазян, Владимир Гориславец, Лилия Лаврова, Валентина Сулеманова, Тимофей Скрипкин, Александр Хинкис
Описание: Двадцатилетняя студентка медицинского ВУЗа Алиса влюблена и счастлива: ее парень Егор, восходящая звезда боев без правил, только что прямо на ринге сделал ей предложение. Но счастье Алисы оказывается недолгим. Ради отца, задолжавшего крупную сумму денег бандитам, Алиса вынуждена выйти замуж по расчету. Ее муж, успешный пятидесятилетний бизнесмен Султан Бакоев, влюблен в Алису и готов ради нее свернуть горы. Только это не нужно самой Алисе. Она ненавидит мужа и не замечает, что ей достался очень честный, умный и достойный уважения мужчина...
Все раздачи сериала: http:///*spam*//forum/tracker.php?f=9&nm=%...%E9+%E1%F0%E0%EA
Сэмпл: http://rusfolder.com/33435266
Качество: SATRip
Формат: AVI
Видео кодек: DivX
Аудио кодек: MP3
Видео: 704x400 (1.76:1), 25 fps, DivX Codec 6.8.5/6.9.1 ~1500 kbps avg, 0.21 bit/pixel
Аудио: 48 kHz, MPEG Layer 3, 2 ch, ~128.00 kbps avg

MI

General
Format : AVI
Format/Info : Audio Video Interleave
File size : 529 MiB
Duration : 45mn 6s
Overall bit rate : 1 638 Kbps
Writing library : VirtualDub build 32842/release
Video #0
ID : 0
Format : MPEG-4 Visual
Format settings, BVOP : 1
Format settings, QPel : No
Format settings, GMC : No warppoints
Format settings, Matrix : Default (H.263)
Muxing mode : Packed bitstream
Codec ID : DX50
Codec ID/Hint : DivX 5
Duration : 45mn 6s
Bit rate : 1 501 Kbps
Width : 704 pixels
Height : 400 pixels
Display aspect ratio : 16:9
Frame rate : 25.000 fps
Color space : YUV
Chroma subsampling : 4:2:0
Bit depth : 8 bits
Scan type : Progressive
Compression mode : Lossy
Bits/(Pixel*Frame) : 0.213
Stream size : 484 MiB (92%)
Writing library : DivX 6.8.5 (UTC 2009-08-20)
Audio #1
ID : 1
Format : MPEG Audio
Format version : Version 1
Format profile : Layer 3
Mode : Joint stereo
Mode extension : MS Stereo
Codec ID : 55
Codec ID/Hint : MP3
Duration : 45mn 6s
Bit rate mode : Constant
Bit rate : 128 Kbps
Channel(s) : 2 channels
Sampling rate : 48.0 KHz
Compression mode : Lossy
Stream size : 41.3 MiB (8%)
Alignment : Split accross interleaves
Interleave, duration : 40 ms (1.00 video frame)
Interleave, preload duration : 500 ms

Скриншоты

Внимание! Раздача ведётся путём добавления новых серий

При каждом добавлении создётся новый торрент. Чтобы начать докачку новой серии, пользователям необходимо сделать следующее:
(1) остановить скачивание,
(2) удалить старый торрент у себя из клиента (старые серии удалять не надо),
(3) скачать новый торрент и запустить его у себя в клиенте вместо старого, при этом указать клиенту путь в старую папку куда и должно происходить скачивание новых серий.
Ваш клиент при этом должен произвести хеширование (проверку) старой папки (если не производит сам - помогите ему сделать это), и будет докачивать только те серии которых у вас ещё нет. Старые серии при этом не удаляются, а продолжают раздаваться!
Eсли вы уже удалили старые серии, то предотвратить повторную закачку старых серий можно, отжав галочку в соответсвующих местах при запуске нового торрента. По возможности, желательно не удалять старые серии как можно дольше чтобы релизёр не столько продолжал раздавать старые серии, а смог сконцентрироваться на новых
Other forum [Profile] [PM]
Display posts from previous:    
Reply to topic

The time now is: Today 22:33

All times are GMT + 3 Hours



You cannot post new topics in this forum
You cannot reply to topics in this forum
You cannot edit your posts in this forum
You cannot delete your posts in this forum
You cannot vote in polls in this forum
You cannot attach files in this forum
You cannot download files in this forum