Today is a free download without charge Download

Под подозрением / Under Suspicion (Саймон Мур / Simon Moore) [1991, Великобритания, США, криминал, триллер, драма, BDRip 720p] DVO (Карусель) + AVO (А.Гаврилов) + DVO (НТВ) + Sub Rus, Eng + Original Eng

Reply to topic
 
Author
Message

Omen ®

Longevity: 8 years 5 months

Posts: 181087

Торрент-статистика

Post 11-Apr-2013 02:48

[Quote]

Под подозрением / Under Suspicion- Страна: Великобритания, США
Жанр: криминал, триллер, драма
Год выпуска: 1991
Продолжительность: 1h 39mn 58s
Перевод: Профессиональный (двухголосый закадровый) Карусель
Перевод 2: Авторский (одноголосый закадровый) А.Гаврилов
Перевод 3: Профессиональный (двухголосый закадровый) НТВ
Cубтитры: Rus, Eng SRT
Оригинальная аудиодорожка: английский
Режиссер: Саймон Мур / Simon Moore-В ролях
Лиам Нисон / Liam Neeson
Лора Сан Джакомо / Laura San Giacomo
Кеннет Крэнэм, Мэгги О’Нил, Алан Тэлбот, Малкольм Сторри, Мартин Грэйс, Кевин Мур, Стефен Оксли, Колин Дадли
Описание
Частный детектив «устраивает» разводы. Он добивается супружеской неверности, а роль любовницы, «подкидываемой» в постель к клиентам играет его жена Хейзел. Однажды, в канун Рождества, Тони врывается в гостиничный номер и нажимает на затвор фотоаппарата. В его объектив попадают сразу два трупа: Хейзел и клиента. На наследство убитого, знаменитого художника, претендуют его вдова и бывшая любовница. А Тони оказывается главным подозреваемым в убийстве...-
IMDb: Ratings: 6,3/10 from 1 703 users
Sample
Качество видео: BDRip 720p (источник: BD-Remux / 1080p / Diablo )
Формат видео: MKV
Видео: AVC 1280 x 536 (2.388) 23.976 fps
Аудио: DTS 510 Kbps 2 channels, 48.0 KHz Rus DVO Карусель
Аудио 2: AC-3 192 Kbps : 2 channels, 48.0 KHz Rus AVO А.Гаврилов
Аудио 3: AC-3 192 Kbps 2 channels, 48.0 KHz НТВ
Аудио 4: DTS 510 Kbps 2 channels, 48.0 KHz Eng
Формат субтитров: softsub (SRT)

MediaInfo | Log

Log

x264 [info]: frame I:953 Avg QP:13.82 size:131226
x264 [info]: frame P:27487 Avg QP:16.40 size: 50406
x264 [info]: frame B:115368 Avg QP:18.56 size: 21982
x264 [info]: consecutive B-frames: 1.3% 1.9% 5.1% 10.2% 15.5% 44.1% 9.6% 8.2% 4.0%
x264 [info]: mb I I16..4: 7.3% 76.9% 15.8%
x264 [info]: mb P I16..4: 0.3% 13.1% 0.9% P16..4: 26.8% 36.3% 16.3% 2.4% 0.2% skip: 3.8%
x264 [info]: mb B I16..4: 0.0% 3.4% 0.0% B16..8: 38.1% 25.0% 5.7% direct: 7.1% skip:20.6% L0:48.0% L1:40.8% BI:11.1%
x264 [info]: 8x8 transform intra:92.8% inter:57.8%
x264 [info]: direct mvs spatial:98.9% temporal:1.1%
x264 [info]: coded y,uvDC,uvAC intra: 97.2% 91.8% 77.6% inter: 40.9% 33.2% 7.7%
x264 [info]: i16 v,h,dc,p: 38% 9% 18% 36%
x264 [info]: i8 v,h,dc,ddl,ddr,vr,hd,vl,hu: 11% 8% 15% 9% 12% 11% 11% 10% 12%
x264 [info]: i4 v,h,dc,ddl,ddr,vr,hd,vl,hu: 16% 9% 7% 8% 13% 13% 12% 10% 11%
x264 [info]: i8c dc,h,v,p: 49% 20% 16% 15%
x264 [info]: Weighted P-Frames: Y:5.5% UV:1.8%
x264 [info]: ref P L0: 36.9% 8.8% 19.9% 7.9% 7.4% 4.8% 4.8% 2.5% 2.6% 2.0% 2.2% 0.2% 0.0%
x264 [info]: ref B L0: 60.8% 15.2% 8.3% 4.6% 3.4% 2.9% 2.2% 1.5% 0.8% 0.3%
x264 [info]: ref B L1: 89.4% 10.6%
x264 [info]: kb/s:5397.23
x264 [total]: encoded 143808 frames, 7.81 fps, 5397.23 kb/s
Format : Matroska
Format version : Version 4 / Version 2
File size : 4.75 GiB
Duration : 1h 39mn
Overall bit rate : 6 805 Kbps
Encoded date : UTC 2013-04-10 21:16:41
Writing application : mkvmerge v6.1.0 ('Old Devil') built on Mar 2 2013 14:32:37
Writing library : libebml v1.3.0 + libmatroska v1.4.0
Video
ID : 1
Format : AVC
Format/Info : Advanced Video Codec
Format profile : [email protected]
Format settings, CABAC : Yes
Format settings, ReFrames : 11 frames
Codec ID : V_MPEG4/ISO/AVC
Duration : 1h 39mn
Bit rate : 5 400 Kbps
Width : 1 280 pixels
Height : 536 pixels
Display aspect ratio : 2.40:1
Frame rate mode : Constant
Frame rate : 23.976 fps
Color space : YUV
Chroma subsampling : 4:2:0
Bit depth : 8 bits
Scan type : Progressive
Bits/(Pixel*Frame) : 0.328
Stream size : 3.68 GiB (77%)
Writing library : x264 core 130 r2273 b3065e6
Encoding settings : cabac=1 / ref=11 / deblock=1:-3:-2 / analyse=0x3:0x133 / me=umh / subme=11 / psy=1 / psy_rd=1.00:0.05 / mixed_ref=1 / me_range=32 / chroma_me=1 / trellis=2 / 8x8dct=1 / cqm=0 / deadzone=21,11 / fast_pskip=0 / chroma_qp_offset=-3 / threads=12 / lookahead_threads=2 / sliced_threads=0 / nr=0 / decimate=1 / interlaced=0 / bluray_compat=0 / constrained_intra=0 / bframes=8 / b_pyramid=2 / b_adapt=2 / b_bias=0 / direct=3 / weightb=1 / open_gop=0 / weightp=2 / keyint=250 / keyint_min=23 / scenecut=40 / intra_refresh=0 / rc_lookahead=60 / rc=2pass / mbtree=1 / bitrate=5400 / ratetol=1.0 / qcomp=0.60 / qpmin=0 / qpmax=69 / qpstep=4 / cplxblur=20.0 / qblur=0.5 / ip_ratio=1.40 / aq=1:1.00
Language : English
Default : Yes
Forced : No
Audio #1
ID : 2
Format : DTS
Format/Info : Digital Theater Systems
Mode : 16
Format settings, Endianness : Big
Codec ID : A_DTS
Duration : 1h 39mn
Bit rate mode : Constant
Bit rate : 510 Kbps
Channel(s) : 2 channels
Channel positions : Front: L R
Sampling rate : 48.0 KHz
Bit depth : 16 bits
Compression mode : Lossy
Stream size : 365 MiB (7%)
Title : Rus (DVO, karusel)
Language : Russian
Default : Yes
Forced : No
Audio #2
ID : 3
Format : AC-3
Format/Info : Audio Coding 3
Mode extension : CM (complete main)
Format settings, Endianness : Big
Codec ID : A_AC3
Duration : 1h 39mn
Bit rate mode : Constant
Bit rate : 192 Kbps
Channel(s) : 2 channels
Channel positions : Front: L R
Sampling rate : 48.0 KHz
Bit depth : 16 bits
Compression mode : Lossy
Stream size : 137 MiB (3%)
Title : Rus (AVO Gavrilov)
Language : Russian
Default : No
Forced : No
Audio #3
ID : 4
Format : AC-3
Format/Info : Audio Coding 3
Mode extension : CM (complete main)
Format settings, Endianness : Big
Codec ID : A_AC3
Duration : 1h 39mn
Bit rate mode : Constant
Bit rate : 192 Kbps
Channel(s) : 2 channels
Channel positions : Front: L R
Sampling rate : 48.0 KHz
Bit depth : 16 bits
Compression mode : Lossy
Stream size : 137 MiB (3%)
Title : Rus (DVO NTV)
Language : Russian
Default : No
Forced : No
Audio #4
ID : 5
Format : DTS
Format/Info : Digital Theater Systems
Mode : 16
Format settings, Endianness : Big
Codec ID : A_DTS
Duration : 1h 39mn
Bit rate mode : Constant
Bit rate : 510 Kbps
Channel(s) : 2 channels
Channel positions : Front: L R
Sampling rate : 48.0 KHz
Bit depth : 16 bits
Compression mode : Lossy
Stream size : 365 MiB (7%)
Title : Eng (Original)
Language : English
Default : No
Forced : No
Text #1
ID : 6
Format : UTF-8
Codec ID : S_TEXT/UTF8
Codec ID/Info : UTF-8 Plain Text
Title : Rus
Language : Russian
Default : No
Forced : No
Text #2
ID : 7
Format : UTF-8
Codec ID : S_TEXT/UTF8
Codec ID/Info : UTF-8 Plain Text
Title : Eng
Language : English
Default : No
Forced : No

Скриншоты

Other forum [Profile] [PM]
Display posts from previous:    
Reply to topic

The time now is: Today 23:14

All times are GMT + 3 Hours



You cannot post new topics in this forum
You cannot reply to topics in this forum
You cannot edit your posts in this forum
You cannot delete your posts in this forum
You cannot vote in polls in this forum
You cannot attach files in this forum
You cannot download files in this forum