Сегодня идет свободное скачивание без начисления Download

Старый знакомый (1969) DVDRip [H.264]

Ответить на тему
 
Автор
Сообщение

UndegraundMen ®

Стаж: 5 лет 9 месяцев

Сообщений: 25860

Торрент-статистика

Пост 11-Апр-2013 00:03

[Цитировать]

Старый знакомый (1969) DVDRip [H.264]- Русское название: Старый знакомый
Год выпуска: 1969
Страна: СССР / Мосфильм, ТО "Киноактёр"
Жанр: комедия
Режиссеры: Игорь Ильинский, Аркадий Кольцатый
Актеры: Игорь Ильинский, Николай Рыбников, Владимир Этуш, Сергей Филиппов, Мария Миронова, Тамара Носова, Наталья Селезнёва, Феликс Яворский, Владимир Ферапонтов, Анатолий Веденкин, Геннадий Ялович, Алла Ларионова, Татьяна Щукина, Ольга Гаспарова, Маргарита Мерино
Описание фильма:
"Старый знакомый" - это бюрократ Огурцов (Ильинский), директор клуба из "Карнавальной ночи" Э.Рязанова. Он назначен директором нового Парка культуры, для которого разравнивается чудесный уголок природы. Местная интеллигенция во главе с председателем исполкома разыгрывает душителя всего живого...
Игорь Ильинский, на сей раз в качестве режиссера (ему помогал опытный кинематографист Аркадий Кольцатый), решил продолжить похождения своего знаменитого героя. Но, как известно, дважды в одну реку войти невозможно...-Рейтинги:
Премьера: 29 декабря 1969-Релиз от:
Продолжительность: 01:21:26
Качество видео: DVDRip (batonchik)
Видеокодек: MPEG-4 AVC/H.264
Формат: MKV
Битрейт видео: ~ 2221 Кбит/сек
Размер кадра: 688x336
Аудио: Русский: 48 kHz, AC3 , 2 ch, ~384.00 kbps avg

MediaInfo 0.7.62

Общее
Уникальный идентификатор : 194007957531202900891524541702188720079 (0x91F492CFF86631BEABC778BDEA625FCF)
Полное имя :\Старый знакомый (1969) DVDRip.AVC.NNM-CLUB.mkv
Формат : Matroska
Версия формата : Version 2
Размер файла : 1,48 Гбайт
Продолжительность : 1 ч. 21 м.
Общий поток : 2607 Кбит/сек
Название фильма : Старый знакомый (1969) DVDRip.AVC.NNM-CLUB
Дата кодирования : UTC 2013-04-10 14:10:23
Программа кодирования : mkvmerge v5.8.0 ('No Sleep / Pillow') built on Sep 2 2012 15:37:04
Библиотека кодирования : libebml v1.2.3 + libmatroska v1.3.0
Видео
Идентификатор : 1
Формат : AVC
Формат/Информация : Advanced Video Codec
Профиль формата : [url=mailto:[email protected]][email protected][/url]
Параметр CABAC формата : Да
Параметр ReFrames формата : 8 кадров
Идентификатор кодека : V_MPEG4/ISO/AVC
Продолжительность : 1 ч. 21 м.
Битрейт : 2221 Кбит/сек
Ширина : 688 пикселей
Высота : 336 пикселей
Соотношение сторон : 2,048
Режим частоты кадров : Постоянный
Частота кадров : 25,000 кадров/сек
Цветовое пространство : YUV
Субдискретизация насыщенности : 4:2:0
Битовая глубина : 8 бит
Тип развёртки : Прогрессивная
Бит/(Пиксели*Кадры) : 0.384
Размер потока : 1,23 Гбайт (83%)
Заголовок : Старый знакомый (1969) DVDRip.AVC.NNM-CLUB
Библиотека кодирования : x264 core 116 r2074 2641b9e
Настройки программы : cabac=1 / ref=8 / deblock=1:-2:-2 / analyse=0x3:0x133 / me=umh / subme=10 / psy=1 / psy_rd=1.00:0.15 / mixed_ref=1 / me_range=24 / chroma_me=1 / trellis=2 / 8x8dct=1 / cqm=0 / deadzone=21,11 / fast_pskip=0 / chroma_qp_offset=-3 / threads=12 / sliced_threads=0 / nr=0 / decimate=1 / interlaced=0 / bluray_compat=0 / constrained_intra=0 / bframes=8 / b_pyramid=2 / b_adapt=2 / b_bias=0 / direct=3 / weightb=1 / open_gop=0 / weightp=2 / keyint=250 / keyint_min=23 / scenecut=40 / intra_refresh=0 / rc_lookahead=50 / rc=2pass / mbtree=1 / bitrate=2221 / ratetol=1.0 / qcomp=0.60 / qpmin=10 / qpmax=51 / qpstep=4 / cplxblur=20.0 / qblur=0.5 / ip_ratio=1.40 / aq=1:1.00
Язык : Russian
Default : Да
Forced : Нет
Основные цвета : BT.709
Характеристики трансфера : BT.709
Коэффициенты матрицы : BT.709
Аудио
Идентификатор : 2
Формат : AC-3
Формат/Информация : Audio Coding 3
Расширение режима : CM (complete main)
Параметр Endianness формата : Big
Идентификатор кодека : A_AC3
Продолжительность : 1 ч. 21 м.
Вид битрейта : Постоянный
Битрейт : 384 Кбит/сек
Каналы : 2 канала
Расположение каналов : Front: L R
Частота : 48,0 КГц
Битовая глубина : 16 бит
Метод сжатия : С потерями
Размер потока : 224 Мбайт (15%)
Язык : Russian
Default : Да
Forced : Нет
Меню
00:00:00.000 : ru:Chapter 01
00:09:00.600 : ru:Chapter 02
00:20:41.880 : ru:Chapter 03
00:28:20.520 : ru:Chapter 04
00:39:34.320 : ru:Chapter 05
00:45:22.680 : ru:Chapter 06
00:53:36.840 : ru:Chapter 07
01:07:27.720 : ru:Chapter 08
01:15:27.840 : ru:Chapter 09

H.264 log

avs [info]: 688x336p 1:1 @ 25/1 fps (cfr)
x264 [info]: using SAR=1/1
x264 [info]: using cpu capabilities: MMX2 SSE2Fast SSSE3 FastShuffle SSE4.2 AVX
x264 [info]: profile High, level 4.1
x264 [info]: frame I:690 Avg QP:15.40 size: 49838
x264 [info]: frame P:26090 Avg QP:17.44 size: 25739
x264 [info]: frame B:95395 Avg QP:20.92 size: 6822

x264 [info]: consecutive B-frames: 1.0% 2.0% 4.2% 27.7% 26.4% 35.2% 2.8% 0.7% 0.1%
x264 [info]: mb I I16..4: 7.6% 60.4% 32.0%
x264 [info]: mb P I16..4: 0.4% 14.6% 4.1% P16..4: 31.1% 30.9% 12.5% 4.6% 1.6% skip: 0.2%
x264 [info]: mb B I16..4: 0.0% 1.4% 0.4% B16..8: 40.3% 19.7% 5.0% direct:10.4% skip:22.8% L0:31.0% L1:32.6% BI:36.3%
x264 [info]: 8x8 transform intra:75.5% inter:50.8%
x264 [info]: direct mvs spatial:96.0% temporal:4.0%
x264 [info]: coded y,uvDC,uvAC intra: 97.6% 93.8% 79.6% inter: 41.6% 39.8% 9.0%
x264 [info]: i16 v,h,dc,p: 18% 14% 26% 42%
x264 [info]: i8 v,h,dc,ddl,ddr,vr,hd,vl,hu: 19% 8% 9% 8% 11% 13% 9% 12% 11%
x264 [info]: i4 v,h,dc,ddl,ddr,vr,hd,vl,hu: 15% 8% 5% 9% 14% 15% 11% 13% 11%
x264 [info]: i8c dc,h,v,p: 38% 21% 21% 19%
x264 [info]: Weighted P-Frames: Y:45.5% UV:34.7%
x264 [info]: ref P L0: 39.4% 11.2% 15.9% 9.8% 6.8% 6.4% 5.0% 3.8% 1.5% 0.1%
x264 [info]: ref B L0: 86.7% 7.0% 2.3% 1.7% 1.2% 0.8% 0.4%
x264 [info]: ref B L1: 97.6% 2.4%
x264 [info]: kb/s:2220.86
x264 [total]: encoded 122175 frames, 9.59 fps, 2220.86 kb/s
Скриншоты:

       
       

Время раздачи: круглогодичноИграю на аккордеоне за "Спасибо"
Вне форума [Профиль] [ЛС]
Показать сообщения:    
Ответить на тему

Текущее время: Сегодня 23:38

Часовой пояс: GMT + 3



Вы не можете начинать темы
Вы не можете отвечать на сообщения
Вы не можете редактировать свои сообщения
Вы не можете удалять свои сообщения
Вы не можете голосовать в опросах
Вы не можете прикреплять файлы к сообщениям
Вы не можете скачивать файлы