Today is a free download without charge Download

Pearl Jam - Live at Lollapalooza 2013 [2013, Rock, HDTV 1080i]

Reply to topic
 
Author
Message

Omen ®

Longevity: 8 years 3 months

Posts: 181087

Торрент-статистика

Post 10-Apr-2013 18:34

[Quote]

Pearl Jam - Live at Lollapalooza 2013
Жанр: Rock
Продолжительность: 02:12:48
Год выпуска: 2013
Описание:
Live at Lollapalooza Festival 2013
Brazil, March 31
Set List:
01.Elderly Woman Behind the Counter in a Small Town
02.Why Go
03.Interstellar Overdrive (Pink Floyd cover)
04.Corduroy
05.Comatose
06.Ole
07.Do the Evolution
08.Wishlist
09.Got Some
10.Even Flow
11.Nothingman
12.Insignificance
13.Daughter
14.World Wide Suicide
15.Jeremy
16.Unthought Known
17.State of Love and Trust
18.Rearviewmirror
19.Given to Fly
20.Not for You
21.Better Man
22.Black
23.I Believe in Miracles (Ramones cover)
24.Go
25.Alive
26.Baba O'Riley (The Who cover)
27.Yellow Ledbetter
Качество: HDTV 1080i
Контейнер: TS
Видео кодек: H.264
Аудио кодек: AC3
Видео: H.264 1920x1080 16:9 9108Kbps 29.970fps
Аудио: AC3 384kbps 48kHz 5.1ch

Отчёт MediaInfo / BDInfo

ОбщееИдентификатор : 1 (0x1)Полное имя : E:\Videos\Shows\backup\Pearl.Jam.Live.in.Lollapalooza.Brazil.2013.1080p.HDTV.tsФормат : MPEG-TSРазмер файла : 8,45 ГбайтПродолжительность : 2 ч. 12 м.Общий поток : 9108 Кбит/сек
ВидеоИдентификатор : 4133 (0x1025)Идентификатор меню : 1 (0x1)Формат : AVCФормат/Информация : Advanced Video CodecПрофиль формата : [email protected]Параметр CABAC формата : ДаПараметр ReFrames формата : 4 кадраИдентификатор кодека : 27Продолжительность : 2 ч. 12 м.Битрейт : 8270 Кбит/секШирина : 1920 пикселейВысота : 1080 пикселейСоотношение сторон : 16:9Частота кадров : 29,970 кадров/секЦветовое пространство : YUVСубдискретизация насыщенности : 4:2:0Битовая глубина : 8 битТип развёртки : ЧересстрочнаяПорядок развёртки : Верхнее поле первоеБит/(Пиксели*Кадры) : 0.133Размер потока : 7,67 Гбайт (91%)Основные цвета : BT.709Характеристики трансфера : BT.709Коэффициенты матрицы : BT.709
АудиоИдентификатор : 4132 (0x1024)Идентификатор меню : 1 (0x1)Формат : AC-3Формат/Информация : Audio Coding 3Расширение режима : CM (complete main)Параметр Endianness формата : BigИдентификатор кодека : 6Продолжительность : 2 ч. 12 м.Вид битрейта : ПостоянныйБитрейт : 384 Кбит/секКаналы : 5 каналовРасположение каналов : Front: L C R, Side: L RЧастота : 48,0 КГцБитовая глубина : 16 битМетод сжатия : С потерямиРазмер потока : 365 Мбайт (4%)Язык : Portuguese

Скриншоты



Other forum [Profile] [PM]
Display posts from previous:    
Reply to topic

The time now is: Today 09:35

All times are GMT + 3 Hours



You cannot post new topics in this forum
You cannot reply to topics in this forum
You cannot edit your posts in this forum
You cannot delete your posts in this forum
You cannot vote in polls in this forum
You cannot attach files in this forum
You cannot download files in this forum