Today is a free download without charge Download

Другой мир: Пробуждение / Underworld: Awakening (Монс Морлинд / Mans Marlind, Бьёрн Стейн / Björn Stein) [2012, США, Канада, боевик триллер, фэнтези, BDRip 1080p]

Reply to topic
 
Author
Message

Delia ®

Gender:

Longevity: 10 years

Posts: 1821

Торрент-статистика

Post 10-Apr-2013 08:38

[Quote]

-Другой мир: ПробуждениеUnderworld: Awakening«Месть проснулась»-- Год выпуска: 2012
Страна: США
Жанр: ужасы, фэнтези, боевик
Продолжительность: 01:28:34
Перевод: Профессиональный (полное дублирование)
Режиссер: Монс Морлинд / Måns Mårlind, Бьёрн Стейн / Björn Stein

В ролях: Кейт Бекинсейл (Selene), Стивен Ри (Dr. Jacob Lane), Майкл Или (Detective Sebastian), Тео Джеймс (David), Индиа Айсли (Eve), Чарльз Дэнс (Thomas), Сандрин Холт (Lida), Кристен Холден-Рид (Quint), Джейкоб Блэр (Officer Kolb), Адам Рейд (Med Tech #1), Кэтлин Адамс (Olivia), Роберт Лоуренсон (Waterfront Cop)-Описание: Через 12 лет в состоянии, близком к коматозному, Селин узнает о существовании родной дочери Евы - гибрида вампира и ликана. И Селин необходимо помешать БиоКом создать суперликанов, которые убьют их всех.-
Рейтинг MPAA: - Лицам до 17 лет обязательно присутствие взрослого ---
Качество: BDRip
Контейнер: MKV
Видео: AVC, 1920x800 (2.40:1), 11571 kbps, 23,976 fps, 0,314 bpp
Аудио №1: русский /; AC3 /; 5.1 /; 48 kHz /; 640 kbps /; 16 bit; ||
Аудио №2: английский /; AC3 /; 5.1 /; 48 kHz /; 640 kbps /; 16 bit
Субтитры №1: русские; ((Blu-ray CEE)
Субтитры №2: английские; (Forced)
Субтитры №3: английские; (Full)
Навигация по главам: есть--

Media Info

General
Unique ID : 224309971245564798738327171217609448540 (0xA8C0876F78525079883B67952F5FDC5C)
Complete name : E:\Torrent\Underworld Awakening.2012.1080p.F_HD.mkv
Format : Matroska
Format version : Version 4 / Version 2
File size : 7.95 GiB
Duration : 1h 28mn
Overall bit rate : 12.8 Mbps
Movie name : FREEISLAND HD
Encoded date : UTC 2013-04-10 04:35:00
Writing application : mkvmerge v6.0.0 ('Coming Up For Air') built on Jan 20 2013 09:52:00
Writing library : libebml v1.3.0 + libmatroska v1.4.0
Video
ID : 1
Format : AVC
Format/Info : Advanced Video Codec
Format profile : [email protected]
Format settings, CABAC : Yes
Format settings, ReFrames : 4 frames
Codec ID : V_MPEG4/ISO/AVC
Duration : 1h 28mn
Bit rate : 11.6 Mbps
Width : 1 920 pixels
Height : 800 pixels
Display aspect ratio : 2.40:1
Frame rate : 23.976 fps
Color space : YUV
Chroma subsampling : 4:2:0
Bit depth : 8 bits
Scan type : Progressive
Bits/(Pixel*Frame) : 0.314
Stream size : 7.00 GiB (88%)
Writing library : x264 core 130 r2273kMod b3065e6
Encoding settings : cabac=1 / ref=4 / deblock=1:-3:-3 / analyse=0x3:0x113 / me=umh / subme=11 / psy=1 / fade_compensate=0.00 / psy_rd=1.00:0.07 / mixed_ref=1 / me_range=48 / chroma_me=1 / trellis=2 / 8x8dct=1 / cqm=0 / deadzone=21,11 / fast_pskip=0 / chroma_qp_offset=-3 / threads=6 / lookahead_threads=1 / sliced_threads=0 / nr=0 / decimate=1 / interlaced=0 / bluray_compat=0 / constrained_intra=0 / bframes=9 / b_pyramid=2 / b_adapt=2 / b_bias=0 / direct=3 / weightb=1 / open_gop=0 / weightp=2 / keyint=250 / keyint_min=23 / scenecut=40 / intra_refresh=0 / rc_lookahead=40 / rc=2pass / mbtree=0 / bitrate=11571 / ratetol=1.0 / qcomp=0.75 / qpmin=10 / qpmax=51 / qpstep=4 / cplxblur=20.0 / qblur=0.5 / vbv_maxrate=50000 / vbv_bufsize=62500 / nal_hrd=none / ip_ratio=1.40 / pb_ratio=1.30 / aq=3:0.80
Language : English
Default : Yes
Forced : No
Matrix coefficients : BT.709-5, BT.1361, IEC 61966-2-4 709, SMPTE RP177
Audio #1
ID : 2
Format : AC-3
Format/Info : Audio Coding 3
Mode extension : CM (complete main)
Codec ID : A_AC3
Duration : 1h 28mn
Bit rate mode : Constant
Bit rate : 640 Kbps
Channel(s) : 6 channels
Channel positions : Front: L C R, Side: L R, LFE
Sampling rate : 48.0 KHz
Bit depth : 16 bits
Compression mode : Lossy
Stream size : 405 MiB (5%)
Title : (дублированный) Blu-ray CEE
Language : Russian
Default : Yes
Forced : No
Audio #2
ID : 3
Format : AC-3
Format/Info : Audio Coding 3
Mode extension : CM (complete main)
Codec ID : A_AC3
Duration : 1h 28mn
Bit rate mode : Constant
Bit rate : 640 Kbps
Channel(s) : 6 channels
Channel positions : Front: L C R, Side: L R, LFE
Sampling rate : 48.0 KHz
Bit depth : 16 bits
Compression mode : Lossy
Stream size : 405 MiB (5%)
Language : English
Default : No
Forced : No
Text #1
ID : 4
Format : UTF-8
Codec ID : S_TEXT/UTF8
Codec ID/Info : UTF-8 Plain Text
Title : (Blu-ray CEE
Language : Russian
Default : No
Forced : No
Text #2
ID : 5
Format : UTF-8
Codec ID : S_TEXT/UTF8
Codec ID/Info : UTF-8 Plain Text
Title : Forced
Language : English
Default : No
Forced : No
Text #3
ID : 6
Format : UTF-8
Codec ID : S_TEXT/UTF8
Codec ID/Info : UTF-8 Plain Text
Title : Full
Language : English
Default : No
Forced : No
Menu
00:00:00.000 : en:00:00:00.000
00:04:26.057 : en:00:04:26.057
00:07:45.340 : en:00:07:45.340
00:16:20.188 : en:00:16:20.188
00:21:11.812 : en:00:21:11.812
00:24:49.988 : en:00:24:49.988
00:30:29.828 : en:00:30:29.828
00:35:31.755 : en:00:35:31.755
00:40:04.944 : en:00:40:04.944
00:45:23.930 : en:00:45:23.930
00:52:30.731 : en:00:52:30.731
00:57:21.563 : en:00:57:21.563
01:02:53.937 : en:01:02:53.937
01:07:43.726 : en:01:07:43.726
01:12:18.501 : en:01:12:18.501
01:16:41.430 : en:01:16:41.430


Скриншоты

     
     

_________________
Человек – это канат, натянутый между животным и сверхчеловеком, – канат над пропастью.
В человеке ценно то, что он мост, а не цель. Фридрих Ницше
Other forum [Profile] [PM]
Display posts from previous:    
Reply to topic

The time now is: Today 13:17

All times are GMT + 3 Hours



You cannot post new topics in this forum
You cannot reply to topics in this forum
You cannot edit your posts in this forum
You cannot delete your posts in this forum
You cannot vote in polls in this forum
You cannot attach files in this forum
You cannot download files in this forum