Today is a free download without charge Download

Под прикрытием / Серии: 01-02 из 12 (Тимур Алпатов) [2012, Криминал, HDTV, 1080i]

Reply to topic
 
Author
Message

Omen ®

Longevity: 9 years 1 month

Posts: 181086

Торрент-статистика

Post 10-Apr-2013 02:11

[Quote]

Под прикрытием
Год выпуска: 2012
Производство: Россия, "DT Production"
Жанр: Криминал
Продолжительность: 00:45:00
Субтитры: Отсутсвтуют
Режиссёр: Тимур Алпатов
В ролях: Сергей Газаров, Владимир Яглыч, Владислав Котлярский, Гурам Баблишвили, Софья Торосян, Максим Важов, Карина Разумовская, Михаил Солодко, Эдуард Рябинин, Денис Кудрявцев, Анатолий Отраднов, Егор Вадов, Глория Августинович и другие.
Описание: Высокобюджетный приключенческий боевик от режиссера «Глухаря». Что будет, если во время операции по внедрению в преступную группировку офицер ФСБ влюбится в дочь главаря? ФСБ на протяжении длительного времени следила за известной преступной организацией, и последние донесения вызвали серьезные опасения: объемы денежных средств, проходящие через эту группировку, просто ужасают. Эта криминальная группировка занимается всеми видами преступного бизнеса, начиная от обычного вымогательства и предоставления "крыши" коммерсантам, завершая проведением многоуровневых афер с госсредствами. Все попытки разоблачить преступников и предать справедливому суду заканчиваются провалом. Существует лишь один способ арестовать преступников - внедрение крота в криминальную группировку, чтобы изнутри добыть необходимую информацию и всевозможные улики. В качестве агента был выбран молодой сотрудник оперативного отдела. Все шло, как и планировалось, пока с внедренным агентом не произошла оказия - он по уши влюбился в дочь главаря криминальной группировки. И теперь вся операция находится под угрозой срыва.
Сэмпл: http://multi-up.com/852211
Доп. информация: Релиз -

Рип чистый. Без посторонних надписей. Выкладывается как есть.
Качество: HDTV 1080i
Контейнер: TS
Видео кодек: AVC
Аудио кодек: AC3
Видео: 1920x1080 (16:9) 25.000 fps 7 838 Kbps, 0.151 bit/pixel
Аудио 1: MPEG Audio 48000Hz stereo 192 Кбит/сек
Аудио 2: AC3 384 Kbps, 2 channels

Скриншоты


MI

GeneralID : 1 (0x1)Complete name : J:\ВЫКЛАДКА\HDTV\Сериалы\Под прикрытием (2012, Криминал, HDTV) (MYDIMKA)\01 серия.tsFormat : MPEG-TSFile size : 3.14 GiBDuration : 50mn 33sOverall bit rate mode : VariableOverall bit rate : 8 900 Kbps
VideoID : 2931 (0xB73)Menu ID : 1 (0x1)Format : AVCFormat/Info : Advanced Video CodecFormat profile : [email protected] settings, CABAC : YesFormat settings, ReFrames : 3 framesCodec ID : 27Duration : 50mn 33sBit rate : 7 878 KbpsWidth : 1 920 pixelsHeight : 1 080 pixelsDisplay aspect ratio : 16:9Frame rate : 25.000 fpsColor space : YUVChroma subsampling : 4:2:0Bit depth : 8 bitsScan type : MBAFFBits/(Pixel*Frame) : 0.152Stream size : 2.78 GiB (89%)
Audio #1ID : 2932 (0xB74)Menu ID : 1 (0x1)Format : MPEG AudioFormat version : Version 1Format profile : Layer 2Codec ID : 3Duration : 50mn 33sBit rate mode : ConstantBit rate : 192 KbpsChannel(s) : 2 channelsSampling rate : 48.0 KHzCompression mode : LossyStream size : 69.4 MiB (2%)Language : Russian
Audio #2ID : 2933 (0xB75)Menu ID : 1 (0x1)Format : AC-3Format/Info : Audio Coding 3Mode extension : CM (complete main)Format settings, Endianness : BigCodec ID : 129Duration : 50mn 33sBit rate mode : ConstantBit rate : 384 KbpsChannel(s) : 2 channelsChannel positions : Front: L RSampling rate : 48.0 KHzBit depth : 16 bitsCompression mode : LossyStream size : 139 MiB (4%)Language : Russian
TextID : 2934 (0xB76)-888Menu ID : 1 (0x1)Format : Teletext SubtitleLanguage : Russian
MenuID : 2930 (0xB72)Menu ID : 1 (0x1)Duration : 50mn 33sList : 2931 (0xB73) (AVC) / 2932 (0xB74) (MPEG Audio, Russian) / 2933 (0xB75) (AC-3, Russian) / 2934 (0xB76) ()Language : / Russian / Russian

Внимание! Раздача ведётся путём добавления новых выпусков

Внимание! Раздача ведётся путём добавления новых выпусков; при каждом добавлении создётся новый торрент. Чтобы начать докачку нового выпуска, пользователям необходимо сделать следующее:
(1) остановить скачивание,
(2) удалить старый торрент у себя из клиента (старые выпуски удалять не надо),
(3) скачать новый торрент и запустить его у себя в клиенте вместо старого, при этом указать клиенту путь в старую папку куда и должно происходить скачивание новых выпусков.
Ваш клиент при этом должен произвести хеширование (проверку) старой папки (если не производит сам - помогите ему сделать это), и будет докачивать только те выпуски которых у вас ещё нет. Старые выпуски при этом не удаляются, а продолжают раздаваться!
Eсли вы уже удалили старые выпуски, то предотвратить повторную закачку старых выпусков можно, отжав галочку в соответсвующих местах при запуске нового торрента. По возможности, желательно не удалять старые выпуски как можно дольше чтобы релизёр не столько продолжал раздавать старые выпуски, а смог сконцентрироваться на новых.
Other forum [Profile] [PM]
Display posts from previous:    
Reply to topic

The time now is: Today 23:48

All times are GMT + 3 Hours



You cannot post new topics in this forum
You cannot reply to topics in this forum
You cannot edit your posts in this forum
You cannot delete your posts in this forum
You cannot vote in polls in this forum
You cannot attach files in this forum
You cannot download files in this forum