Today is a free download without charge Download

Генеральская сноха / Серии: 1-4 из 4 (Анатолий Матешко) [2012, Мелодрама, HDTVRip 720p]

Reply to topic
 
Author
Message

Omen ®

Longevity: 9 years 1 month

Posts: 181086

Торрент-статистика

Post 10-Apr-2013 02:11

[Quote]

Генеральская сноха
Год выпуска: 2012
Производство: Россия, "Новая студия", Кинокомпания "УПС"
Жанр: Мелодрама
Продолжительность: 2 х ~ 01:30:00
Режиссёр: Анатолий Матешко
В ролях: Наталья Антонова, Игорь Ботвин, Лариса Кадочникова и другие.
Описание: У Иры Колчиной все складывается как нельзя лучше. Подружки не зря завидуют ей: сам профессор Федоров предложил вчерашней студентке работу в собственной клинике. К тому же скоро Ирина станет генеральской снохой, будет жить в почете и достатке. Но не все сбылось, как мечталось. Главной в семье считается Изольда Генриховна, генеральша. Она искренне считает, что Ирина не должна забывать о том, в какую семью ее "взяли", быть благодарной и вести себя соответственно… Кто же победит в неравной схватке - невестка или свекровь?

Качество: HDTVRip 720p
Формат: MKV
Видео кодек: H.264
Аудио кодек: MPEG Audio
Видео: x264, 1280 х 720 (16:9), 25,000 кадр/сек, ~ 2766 Кбит/сек
Аудио: MPEG Audio 48000Hz stereo 192 Кбит/сек
Сторонней рекламы нет!

MediaInfo

ОбщееУникальный идентификатор : 197153516043482659870049963757794056524 (0x945262D2231727E0BC5C7AC3F0AD594C)Полное имя : G:\ФИЛЬМЫ\Генеральская сноха HDTVRip 720p\Генеральская сноха 01_02_серия_HDTVRip_720p_by_Серый1779.mkvФормат : MatroskaВерсия формата : Version 2Размер файла : 1,86 ГбайтПродолжительность : 1 ч. 28 м.Общий поток : 3018 Кбит/секДата кодирования : UTC 2013-04-09 00:09:33Программа кодирования : mkvmerge v5.6.0 ('Kenya Kane') built on Jun 29 2012 15:01:44Библиотека кодирования : libebml v1.2.3 + libmatroska v1.3.0
ВидеоИдентификатор : 1Формат : AVCФормат/Информация : Advanced Video CodecПрофиль формата : [email protected]Параметр CABAC формата : ДаПараметр ReFrames формата : 9 кадровИдентификатор кодека : V_MPEG4/ISO/AVCПродолжительность : 1 ч. 28 м.Битрейт : 2766 Кбит/секШирина : 1280 пикселейВысота : 720 пикселейСоотношение сторон : 16:9Режим частоты кадров : ПостоянныйЧастота кадров : 25,000 кадров/секЦветовое пространство : YUVСубдискретизация насыщенности : 4:2:0Битовая глубина : 8 битТип развёртки : ПрогрессивнаяБит/(Пиксели*Кадры) : 0.120Размер потока : 1,71 Гбайт (92%)Библиотека кодирования : x264 core 125 r2200 999b753Настройки программы : cabac=1 / ref=9 / deblock=1:-2:-2 / analyse=0x3:0x133 / me=umh / subme=9 / psy=1 / psy_rd=1.10:0.15 / mixed_ref=1 / me_range=32 / chroma_me=1 / trellis=2 / 8x8dct=1 / cqm=0 / deadzone=21,11 / fast_pskip=0 / chroma_qp_offset=-3 / threads=3 / lookahead_threads=1 / sliced_threads=0 / nr=0 / decimate=1 / interlaced=0 / bluray_compat=0 / constrained_intra=0 / bframes=9 / b_pyramid=2 / b_adapt=2 / b_bias=0 / direct=1 / weightb=1 / open_gop=0 / weightp=2 / keyint=250 / keyint_min=25 / scenecut=40 / intra_refresh=0 / rc=crf / mbtree=0 / crf=20.0 / qcomp=0.60 / qpmin=0 / qpmax=69 / qpstep=4 / ip_ratio=1.40 / pb_ratio=1.30 / aq=2:0.80Default : ДаForced : НетОсновные цвета : BT.601 PALХарактеристики трансфера : BT.470 System B, BT.470 System GКоэффициенты матрицы : BT.601
АудиоИдентификатор : 2Формат : MPEG AudioВерсия формата : Version 1Профиль формата : Layer 2Идентификатор кодека : A_MPEG/L2Идентификатор кодека/Подсказка : MP2Продолжительность : 1 ч. 28 м.Вид битрейта : ПостоянныйБитрейт : 192 Кбит/секКаналы : 2 каналаЧастота : 48,0 КГцМетод сжатия : С потерямиРазмер потока : 121 Мбайт (6%)Default : ДаForced : Нет

h264 log

x264 [info]: frame I:851 Avg QP:18.79 size:101236x264 [info]: frame P:25208 Avg QP:20.19 size: 32911x264 [info]: frame B:106468 Avg QP:22.60 size: 8978x264 [info]: consecutive B-frames: 0.9% 0.8% 8.9% 4.9% 5.3% 77.6% 1.3% 0.2% 0.1% 0.1%x264 [info]: mb I I16..4: 7.6% 77.1% 15.3%x264 [info]: mb P I16..4: 0.9% 6.2% 1.1% P16..4: 52.9% 17.8% 16.3% 0.6% 0.2% skip: 4.1%x264 [info]: mb B I16..4: 0.1% 0.4% 0.1% B16..8: 40.0% 5.5% 1.5% direct: 4.8% skip:47.7% L0:37.1% L1:54.1% BI: 8.8%x264 [info]: 8x8 transform intra:75.9% inter:61.0%x264 [info]: coded y,uvDC,uvAC intra: 85.9% 81.6% 51.2% inter: 19.1% 19.7% 1.5%x264 [info]: i16 v,h,dc,p: 38% 16% 8% 37%x264 [info]: i8 v,h,dc,ddl,ddr,vr,hd,vl,hu: 15% 10% 4% 8% 12% 14% 12% 13% 12%x264 [info]: i4 v,h,dc,ddl,ddr,vr,hd,vl,hu: 16% 10% 2% 8% 14% 15% 12% 12% 11%x264 [info]: i8c dc,h,v,p: 32% 24% 26% 18%x264 [info]: Weighted P-Frames: Y:1.3% UV:0.7%x264 [info]: ref P L0: 47.1% 12.3% 20.0% 5.1% 5.0% 3.3% 3.4% 1.6% 2.0% 0.3% 0.0%x264 [info]: ref B L0: 87.6% 7.8% 2.1% 0.9% 0.6% 0.5% 0.3% 0.1%x264 [info]: ref B L1: 95.0% 5.0%x264 [info]: kb/s:2824.54
x264 [total]: encoded 132527 frames, 2.56 fps, 2824.54 kb/s
Отдельное спасибо mydimka за предоставление исходника.

Внимание ! Раздача ведётся путём добавления новых серий

Внимание! Раздача ведётся путём добавления новых серий; при каждом добавлении создётся новый торрент. Чтобы начать докачку новой серии, пользователям необходимо сделать следующее:
(1) остановить скачивание,
(2) удалить старый торрент у себя из клиента (старые серии удалять не надо),
(3) скачать новый торрент и запустить его у себя в клиенте вместо старого, при этом указать клиенту путь в старую папку куда и должно происходить скачивание новых серий.
Ваш клиент при этом должен произвести хеширование (проверку) старой папки (если не производит сам - помогите ему сделать это), и будет докачивать только те серии которых у вас ещё нет. Старые серии при этом не удаляются, а продолжают раздаваться!
Eсли вы уже удалили старые серии, то предотвратить повторную закачку старых серий можно, отжав галочку в соответсвующих местах при запуске нового торрента. По возможности, желательно не удалять старые серии как можно дольше чтобы релизёр не столько продолжал раздавать старые серии, а смог сконцентрироваться на новых.
ВНИМАНИЕ! ТОРРЕНТ ПЕРЕЗАЛИТ! ДОБАВЛЕНА 4-ая СЕРИИ!

Скриншоты

Other forum [Profile] [PM]
Display posts from previous:    
Reply to topic

The time now is: Today 23:59

All times are GMT + 3 Hours



You cannot post new topics in this forum
You cannot reply to topics in this forum
You cannot edit your posts in this forum
You cannot delete your posts in this forum
You cannot vote in polls in this forum
You cannot attach files in this forum
You cannot download files in this forum