Today is a free download without charge Download

Универ. Новая общага / Сезон: 3 / Серии: 35-53 (Koнстантин Смиpнoв) [2012, Ситком, комедия, SATRip-AVC]

Reply to topic
 
Author
Message

Omen ®

Longevity: 9 years 1 month

Posts: 181086

Торрент-статистика

Post 10-Apr-2013 02:11

[Quote]

Универ. Новая общагаГод выпуска: 2012
Производство: Comedy Production
Жанр: Ситком, комедия
Продолжительность: ~ 00:24:00
Режиссёр: Koнстантин Смиpнoв
В ролях: Виталий Гогунский, Арарат Кещян, Станислав Ярушин, Анна Кузина, Настасья Самбурская, Анна Хилькевич, Владимир Фекленко, Елена Валюшкина, Андрей Лебедев, Сергей Пиоро, Роман Куперман, Дмитрий Калистратов, Алексей Шаранин, Дарья Щёголева, Наталья Рудова, Иван Руденко, Анатолий Носов, Дмитрий Кузин, Мария Беляева, Александра Булычёва, Галина Глушкова
Описание: Оставленным на второй год пятикурсникам Антону и Кузе привалило счастье. Их старая общага идет под снос, и в новом корпусе их селят в блок с тремя девушками – Кристиной, Машей и Яной. В роли аспиранта в универ возвращается и Майкл – чтобы откосить от армии. Ребята стали старше и… романтичнее. Теперь им хочется не только секса и тусовок, но и настоящих чувств. Однако вызвать взаимность у дам сердца не так просто, как кажется. Майкл, Антон и Кузя переезжают в новую общагу. Там их уже ждут Кристина, Яна и Маша. Кто объявит себя парой?
Доп. информация: БЕЗ РЕКЛАМЫ!
Семпл
Качество: SATRip-AVC
Формат: MKV
Видео кодек: H.264
Аудио кодек: MP2
Видео: MPEG-4 AVC, [email protected], 25 fps, ~ 1400 kbps, ~ 0.178 bit/pixel
Аудио: MP2, 48 kHz, 2 ch, 192/256 kbps

MI

Общее
Формат : Matroska
Версия формата : Version 2
Размер файла : 263 Мбайт
Продолжительность : 24 м.
Общий поток : 1530 Кбит/сек
Дата кодирования : UTC 2012-11-06 16:15:36
Программа кодирования : mkvmerge v5.0.0 ('Die Wahre Liebe') built on Sep 25 2011 20:33:49
Библиотека кодирования : libebml v1.2.2 + libmatroska v1.3.0
Видео
Идентификатор : 1
Формат : AVC
Формат/Информация : Advanced Video Codec
Профиль формата : [email protected]
Параметр CABAC формата : Да
Параметр ReFrames формата : 8 кадров
Идентификатор кодека : V_MPEG4/ISO/AVC
Продолжительность : 24 м.
Битрейт : 1272 Кбит/сек
Ширина : 718 пикселей
Высота : 432 пикселя
Соотношение сторон : 16:9
Режим частоты кадров : Постоянный
Частота кадров : 25,000 кадров/сек
Цветовое пространство : YUV
Субдискретизация насыщенности : 4:2:0
Битовая глубина : 8 бит
Тип развёртки : Прогрессивная
Бит/(Пиксели*Кадры) : 0.164
Размер потока : 214 Мбайт (81%)
Библиотека кодирования : x264 core 125 r2200 999b753
Настройки программы : cabac=1 / ref=8 / deblock=1:-2:-2 / analyse=0x3:0x133 / me=umh / subme=11 / psy=1 / psy_rd=1.00:0.00 / mixed_ref=1 / me_range=32 / chroma_me=1 / trellis=2 / 8x8dct=1 / cqm=0 / deadzone=21,11 / fast_pskip=0 / chroma_qp_offset=-3 / threads=6 / lookahead_threads=1 / sliced_threads=0 / slices=4 / nr=0 / decimate=1 / interlaced=0 / bluray_compat=0 / constrained_intra=0 / bframes=8 / b_pyramid=2 / b_adapt=2 / b_bias=0 / direct=3 / weightb=1 / open_gop=0 / weightp=2 / keyint=240 / keyint_min=23 / scenecut=40 / intra_refresh=0 / rc=2pass / mbtree=0 / bitrate=1272 / ratetol=1.0 / qcomp=0.60 / qpmin=0 / qpmax=69 / qpstep=4 / cplxblur=20.0 / qblur=0.5 / ip_ratio=1.40 / pb_ratio=1.30 / aq=1:0.80
Язык : English
Default : Да
Forced : Нет
Аудио
Идентификатор : 2
Формат : MPEG Audio
Версия формата : Version 1
Профиль формата : Layer 2
Идентификатор кодека : A_MPEG/L2
Идентификатор кодека/Подсказка : MP2
Продолжительность : 24 м.
Вид битрейта : Постоянный
Битрейт : 256 Кбит/сек
Каналы : 2 канала
Частота : 48,0 КГц
Метод сжатия : С потерями
Задержка видео : 140 мс.
Размер потока : 44,1 Мбайт (17%)
Default : Да
Forced : Нет

Скриншоты

Other forum [Profile] [PM]
Display posts from previous:    
Reply to topic

The time now is: Today 05:55

All times are GMT + 3 Hours



You cannot post new topics in this forum
You cannot reply to topics in this forum
You cannot edit your posts in this forum
You cannot delete your posts in this forum
You cannot vote in polls in this forum
You cannot attach files in this forum
You cannot download files in this forum