Today is a free download without charge Download

Очень маппетовское рождественское кино / Счастливое Рождество Маппетов / It's a Very Merry Muppet Christmas Movie (Кирк Тэтчер / Kirk R.Thatcher) [2002, США, мультфильм, комедия, семейный, WEB-DL 1080p] AVO (Дольский) + Original (ENG)

Reply to topic
 
Author
Message

Omen ®

Longevity: 8 years 5 months

Posts: 181087

Торрент-статистика

Post 10-Apr-2013 02:11

[Quote]

Счастливое Рождество Маппетов
It's a Very Merry Muppet Christmas Movie
«More holiday fun then humanly possible!» Страна: США
Год выпуска: 2002
Жанр: мультфильм, комедия, семейный
Продолжительность: 01:28:28
Перевод: Авторский (одноголосый закадровый) - Андрей Дольский
субтитры: отсутствуют
оригинальная аудиодорожка: английская-Режиссёр: Кирк Тэтчер : Kirk R.Thatcher
В главных ролях: Стив Уитмир, Дэйв Гольц, Билл Барретта, Эрик Джейкобсон, Дэвид Аркетт, Джоан Кьюсак, Мэттью Лиллард, Уильям Х. Мэйси, Вупи Голдберг, Карсон Дэйли-Описание: У группы маппетов дела идут прекрасно: есть свой театр, репертуар и поклонники, но в один момент все изменилось. Новая владелица банка, злобная мисс Баттерман, хочет отобрать театр маппетов и устроить там модный ночной клуб. Следуя своему плану, она обманным путем получает единственную копию контракта. Необходимо чудо для того, чтобы маппеты отстояли свой театр и любимую работу! И это чудо пришло, в виде ангела-хранителя…-
- рекомендуется присутствие родителей-Качество: WEB-DL 1080p
Формат: MKV
Видео кодек: AVC
Аудио кодек: AC3
Видео: 1912x1080, 23,976 fps, ~5 268 kbps avg, 0.106 bit/pixel
Аудио #1: 48.0 kHz, AC3 Dolby Digital, 6 ch, ~384 kbps (AVO)
Аудио #2: 48.0 kHz, AC3 Dolby Digital, 6 ch, ~384 kbps (ENG)
навигация по главам: 18 глав (именные)-

Скриншоты

MediaInfo

Общее
Уникальный идентификатор : 235269346524461844157825289938456809282 (0xB0FF3A5AB87EE18288FBB9BD7F400F42)
Полное имя : D:\Im\Счастливое Рождество Маппетов\It's a Very Merry Muppet Christmas Movie.2002.WEB-DL 1080p.mkv
Формат : Matroska
Версия формата : Version 4 / Version 2
Размер файла : 3,81 Гбайт
Продолжительность : 1 ч. 28 м.
Общий поток : 6158 Кбит/сек
Дата кодирования : UTC 2013-04-09 17:29:27
Программа кодирования : mkvmerge v6.1.0 ('Old Devil') built on Mar 2 2013 14:32:37
Библиотека кодирования : libebml v1.3.0 + libmatroska v1.4.0
Видео
Идентификатор : 1
Формат : AVC
Формат/Информация : Advanced Video Codec
Профиль формата : [email protected]
Параметр CABAC формата : Да
Параметр ReFrames формата : 4 кадра
Идентификатор кодека : V_MPEG4/ISO/AVC
Продолжительность : 1 ч. 28 м.
Битрейт : 5268 Кбит/сек
Ширина : 1912 пикселей
Высота : 1080 пикселей
Соотношение сторон : 16:9
Частота кадров : 23,976 кадра/сек
Цветовое пространство : YUV
Субдискретизация насыщенности : 4:2:0
Битовая глубина : 8 бит
Тип развёртки : Прогрессивная
Бит/(Пиксели*Кадры) : 0.106
Размер потока : 3,26 Гбайт (86%)
Язык : English
Default : Да
Forced : Нет
Основные цвета : BT.709-5, BT.1361, IEC 61966-2-4, SMPTE RP177
Характеристики трансфера : BT.709-5, BT.1361
Коэффициенты матрицы : BT.709-5, BT.1361, IEC 61966-2-4 709, SMPTE RP177
Аудио #1
Идентификатор : 2
Формат : AC-3
Формат/Информация : Audio Coding 3
Расширение режима : CM (complete main)
Идентификатор кодека : A_AC3
Продолжительность : 1 ч. 28 м.
Вид битрейта : Постоянный
Битрейт : 384 Кбит/сек
Каналы : 6 каналов
Расположение каналов : Front: L C R, Side: L R, LFE
Частота : 48,0 КГц
Битовая глубина : 16 бит
Метод сжатия : С потерями
Размер потока : 243 Мбайт (6%)
Заголовок : AVO [А.Дольский]
Язык : Russian
Default : Да
Forced : Нет
Аудио #2
Идентификатор : 3
Формат : AC-3
Формат/Информация : Audio Coding 3
Расширение режима : CM (complete main)
Идентификатор кодека : A_AC3
Продолжительность : 1 ч. 28 м.
Вид битрейта : Постоянный
Битрейт : 384 Кбит/сек
Каналы : 6 каналов
Расположение каналов : Front: L C R, Side: L R, LFE
Частота : 48,0 КГц
Битовая глубина : 16 бит
Метод сжатия : С потерями
Размер потока : 243 Мбайт (6%)
Язык : English
Default : Нет
Forced : Нет
Меню
00:00:00.000 : en:Lost Everything (Main Titles)
00:04:57.000 : en:Yuletide Justice
00:11:47.000 : en:Cirque Du So Lamé
00:18:27.000 : en:Christmas Ruined
00:22:09.000 : en:About Money
00:28:12.000 : en:Change in Contract
00:32:25.000 : en:Moulin Scrooge
00:36:46.000 : en:Trim My Tree
00:41:05.000 : en:Stealing Christmas
00:46:53.000 : en:Merry Mission
00:52:11.000 : en:Greatest Present of All
00:56:59.000 : en:Divine Intervention
01:02:24.000 : en:Without You
01:08:52.000 : en:Silly Dreams
01:13:12.000 : en:What Matters
01:16:10.000 : en:Call from Above
01:20:46.000 : en:Money Talks
01:27:23.000 : en:Everyone Matters (End Titles)
Не забываем оставлять комментарии к релизу, мне интересно Ваше мнение!
Other forum [Profile] [PM]
Display posts from previous:    
Reply to topic

The time now is: Today 12:09

All times are GMT + 3 Hours



You cannot post new topics in this forum
You cannot reply to topics in this forum
You cannot edit your posts in this forum
You cannot delete your posts in this forum
You cannot vote in polls in this forum
You cannot attach files in this forum
You cannot download files in this forum