Today is a free download without charge Download

Как завести ребенка / Детородные / The Babymakers (Джей Чандрашекхар / Jay Chandrasekhar) [2012, США, комедия, BDRip 720p] VO (Сергей Дидок) + Sub Eng + Original Eng

Reply to topic
 
Author
Message

Omen ®

Longevity: 8 years 5 months

Posts: 181087

Торрент-статистика

Post 10-Apr-2013 02:11

[Quote]

Как завести ребенка / Детородные / The Babymakers
Страна: США
Студия: Alliance Films, Automatik Entertainment, Duck Attack Films, IM Global
Жанр: комедия
Год выпуска: 2012
Продолжительность: 01:35:34
Перевод: Одноголосый закадровый (Сергей Дидок)
Cубтитры: английские
Оригинальная аудиодорожка: английский
Режиссер: Джей Чандрашекхар / Jay Chandrasekhar
В ролях: Пол Шнайдер, Оливия Манн, Кевин Хеффернан, Джей Чандрашекхар, Майкл Юрчак, Вуд Харрис, Нат Факсон, Линдси Крафт, Констанс Зиммер, Аиша Тайлер
Описание: После тщетных попыток супружеской пары зачать ребенка, муж уговаривает друзей ограбить банк спермы, чтобы выкрасть образец, пожертвованный им еще в молодости...
Доп. информация: Сохранены оригинальные чаптеры глав (12)
Сэмпл: http://multi-up.com/852613
Тип релиза: BDRip 720p
Контейнер: MKV
Видео: AVC, 5902 Kb/s, 1280x528, 23.976 fps
Аудио: AC3, 448 Kb/s (6 ch), 48.0 KHz - рус.
Аудио 2: AC3, 640 Kb/s (6 ch), 48.0 KHz - eng
Формат субтитров: встроенные, отключаемые

MediaInfo

Общее
Уникальный идентификатор : 247601391290008732979038368311714734647 (0xBA464B1AAC1B50A0A0B422B6034F6237)
Полное имя : D:\The.Babymakers_2012.BDRip720p.mkv
Формат : Matroska
Версия формата : Version 2
Размер файла : 4,64 Гбайт
Продолжительность : 1 ч. 35 м.
Общий поток : 6955 Кбит/сек
Дата кодирования : UTC 2013-04-09 17:50:36
Программа кодирования : mkvmerge v5.8.0 ('No Sleep / Pillow') built on Sep 2 2012 15:37:04
Библиотека кодирования : libebml v1.2.3 + libmatroska v1.3.0
Видео
Идентификатор : 1
Формат : AVC
Формат/Информация : Advanced Video Codec
Профиль формата : [email protected]
Параметр CABAC формата : Да
Параметр ReFrames формата : 5 кадров
Идентификатор кодека : V_MPEG4/ISO/AVC
Продолжительность : 1 ч. 35 м.
Битрейт : 5902 Кбит/сек
Ширина : 1280 пикселей
Высота : 528 пикселей
Соотношение сторон : 2,40:1
Режим частоты кадров : Постоянный
Частота кадров : 23,976 кадра/сек
Цветовое пространство : YUV
Субдискретизация насыщенности : 4:2:0
Битовая глубина : 8 бит
Тип развёртки : Прогрессивная
Бит/(Пиксели*Кадры) : 0.364
Размер потока : 3,82 Гбайт (82%)
Библиотека кодирования : x264 core 128 r2216 198a7ea
Настройки программы : cabac=1 / ref=5 / deblock=1:0:0 / analyse=0x3:0x133 / me=umh / subme=7 / psy=1 / psy_rd=1.00:0.00 / mixed_ref=1 / me_range=16 / chroma_me=1 / trellis=1 / 8x8dct=1 / cqm=0 / deadzone=21,11 / fast_pskip=0 / chroma_qp_offset=-2 / threads=12 / lookahead_threads=2 / sliced_threads=0 / nr=0 / decimate=1 / interlaced=0 / bluray_compat=0 / constrained_intra=0 / bframes=3 / b_pyramid=2 / b_adapt=2 / b_bias=0 / direct=3 / weightb=1 / open_gop=0 / weightp=2 / keyint=250 / keyint_min=23 / scenecut=40 / intra_refresh=0 / rc_lookahead=50 / rc=2pass / mbtree=1 / bitrate=5902 / ratetol=1.0 / qcomp=0.60 / qpmin=0 / qpmax=69 / qpstep=4 / cplxblur=20.0 / qblur=0.5 / ip_ratio=1.40 / aq=1:1.00
Язык : English
Default : Да
Forced : Нет
Аудио #1
Идентификатор : 2
Формат : AC-3
Формат/Информация : Audio Coding 3
Расширение режима : CM (complete main)
Параметр Endianness формата : Big
Идентификатор кодека : A_AC3
Продолжительность : 1 ч. 35 м.
Вид битрейта : Постоянный
Битрейт : 448 Кбит/сек
Каналы : 6 каналов
Расположение каналов : Front: L C R, Side: L R, LFE
Частота : 48,0 КГц
Битовая глубина : 16 бит
Метод сжатия : С потерями
Размер потока : 306 Мбайт (6%)
Язык : Russian
Default : Да
Forced : Нет
Аудио #2
Идентификатор : 3
Формат : AC-3
Формат/Информация : Audio Coding 3
Расширение режима : CM (complete main)
Параметр Endianness формата : Big
Идентификатор кодека : A_AC3
Продолжительность : 1 ч. 35 м.
Вид битрейта : Постоянный
Битрейт : 640 Кбит/сек
Каналы : 6 каналов
Расположение каналов : Front: L C R, Side: L R, LFE
Частота : 48,0 КГц
Битовая глубина : 16 бит
Метод сжатия : С потерями
Размер потока : 438 Мбайт (9%)
Язык : English
Default : Нет
Forced : Нет
Текст
Идентификатор : 4
Формат : UTF-8
Идентификатор кодека : S_TEXT/UTF8
Идентификатор кодека/Информация : UTF-8 Plain Text
Язык : English
Default : Нет
Forced : Нет
Меню
00:00:00.000 : en:00:00:00.000
00:08:22.752 : en:00:08:22.752
00:15:57.165 : en:00:15:57.165
00:21:01.719 : en:00:21:01.719
00:26:29.671 : en:00:26:29.671
00:34:51.214 : en:00:34:51.214
00:42:06.065 : en:00:42:06.065
00:48:38.499 : en:00:48:38.499
00:57:48.757 : en:00:57:48.757
01:08:47.832 : en:01:08:47.832
01:18:50.392 : en:01:18:50.392
01:30:26.254 : en:01:30:26.254

Скриншоты

Other forum [Profile] [PM]
Display posts from previous:    
Reply to topic

The time now is: Today 20:35

All times are GMT + 3 Hours



You cannot post new topics in this forum
You cannot reply to topics in this forum
You cannot edit your posts in this forum
You cannot delete your posts in this forum
You cannot vote in polls in this forum
You cannot attach files in this forum
You cannot download files in this forum