Today is a free download without charge Download

Гость / The Caller (Мэттью Паркхилл / Matthew Parkhill) [2011, Великобритания, Пуэрто Рико, ужасы, триллер, детектив, BDRemux 1080p] MVO (R5) + DVO (NLS studio) + Original (Eng) + Sub (Rus, Eng)

Reply to topic
 
Author
Message

Omen ®

Longevity: 8 years 5 months

Posts: 181087

Торрент-статистика

Post 10-Apr-2013 02:11

[Quote]

Гость / The Caller

-
-Страна: Великобритания, Пуэрто Рико
Студия: Alcove Entertainment, Pimienta, Salt Company International, The
Жанр: ужасы, триллер, детектив
Год выпуска: 2011
Продолжительность: 01:31:24--Перевод 1: Профессиональный (многоголосый закадровый) R5
Перевод 2: Профессиональный (двухголосый закадровый) NLS studio
Cубтитры: русские (Mokum), английские SDH
Оригинальная аудиодорожка: английский--Режиссер: Мэттью Паркхилл / Matthew Parkhill
В ролях: Стивен Мойер, Рашель Лефевр, Луис Гузман, Эд Куинн, Лорна Рэвер, Мариса Альварес, Брайан Тестер, Корделия Гонзалез, Грэйс Коннелли--Описание: Переживания после развода для Мэри Ки усугубляются чередой странных звонков от таинственного незнакомца. Скоро ей начинает чудиться, что некто проникает в дом без ее ведома. Но самое ужасное происходит, когда Мэри понимает, что этот некто звонит из прошлого…--imdb | kinopoisk | Сэмпл--Тип релиза: BDRemux 1080p [The Caller 2011 1080p GER Blu-ray AVC DTS-HD MA 5.1]
Контейнер: MKV
Видео: MPEG-4 AVC / 20001 kbps / 1920x1080 / 24,000 fps / 16:9 / High Profile 4.1
Аудио 1: AC3 / 5.1 / 48 kHz / 448 kbps / 16 bits |MVO, R5|
Аудио 2: AC3 / 2.0 / 48 kHz / 192 kbps / 16 bits |DVO|
Аудио 3: DTS-HD Master Audio / 5.1 / 48 kHz / 1887 kbps / 16 bits (DTS Core: 5.1 / 48 kHz / 1510 kbps / 16 bits) |original|
Формат субтитров: softsub [SRT]

MediaInfo

Общее
Уникальный идентификатор : 192088276238732609750999899986586470027 (0x9082DB379DD207F0B36649DD84FF868B)
Полное имя : G:\HD\Гость.2011.Blu-Ray.Remux.(1080p).mkv
Формат : Matroska
Версия формата : Version 2
Размер файла : 13,8 Гбайт
Продолжительность : 1 ч. 31 м.
Режим общего битрейта : Переменный
Общий поток : 21,6 Мбит/сек
Дата кодирования : UTC 2013-04-09 17:17:52
Программа кодирования : mkvmerge v5.8.0 ('No Sleep / Pillow') built on Sep 2 2012 15:37:04
Библиотека кодирования : libebml v1.2.3 + libmatroska v1.3.0
Видео
Идентификатор : 1
Формат : AVC
Формат/Информация : Advanced Video Codec
Профиль формата : [email protected]
Параметр CABAC формата : Да
Параметр ReFrames формата : 4 кадра
Режим смешивания : Container [email protected]
Идентификатор кодека : V_MPEG4/ISO/AVC
Продолжительность : 1 ч. 31 м.
Вид битрейта : Постоянный
Номинальный битрейт : 20,0 Мбит/сек
Ширина : 1920 пикселей
Высота : 1080 пикселей
Соотношение сторон : 16:9
Режим частоты кадров : Постоянный
Частота кадров : 24,000 кадра/сек
Стандарт вещания : NTSC
Цветовое пространство : YUV
Субдискретизация насыщенности : 4:2:0
Битовая глубина : 8 бит
Тип развёртки : Прогрессивная
Бит/(Пиксели*Кадры) : 0.402
Default : Да
Forced : Нет
Основные цвета : BT.709
Характеристики трансфера : BT.709
Коэффициенты матрицы : BT.709
Аудио #1
Идентификатор : 2
Формат : AC-3
Формат/Информация : Audio Coding 3
Расширение режима : CM (complete main)
Параметр Endianness формата : Big
Идентификатор кодека : A_AC3
Продолжительность : 1 ч. 31 м.
Вид битрейта : Постоянный
Битрейт : 448 Кбит/сек
Каналы : 6 каналов
Расположение каналов : Front: L C R, Side: L R, LFE
Частота : 48,0 КГц
Битовая глубина : 16 бит
Метод сжатия : С потерями
Размер потока : 293 Мбайт (2%)
Заголовок : MVO, R5
Язык : Russian
Default : Да
Forced : Нет
Аудио #2
Идентификатор : 3
Формат : AC-3
Формат/Информация : Audio Coding 3
Расширение режима : CM (complete main)
Параметр Endianness формата : Big
Идентификатор кодека : A_AC3
Продолжительность : 1 ч. 31 м.
Вид битрейта : Постоянный
Битрейт : 192 Кбит/сек
Каналы : 2 канала
Расположение каналов : Front: L R
Частота : 48,0 КГц
Битовая глубина : 16 бит
Метод сжатия : С потерями
Размер потока : 126 Мбайт (1%)
Заголовок : NLS studio
Язык : Russian
Default : Нет
Forced : Нет
Аудио #3
Идентификатор : 4
Формат : DTS
Формат/Информация : Digital Theater Systems
Профиль формата : MA / Core
Режим : 16
Параметр Endianness формата : Big
Идентификатор кодека : A_DTS
Продолжительность : 1 ч. 31 м.
Вид битрейта : Переменный
Битрейт : Неизвестно / 1509 Кбит/сек
Каналы : 6 каналов
Расположение каналов : Front: L C R, Side: L R, LFE
Частота : 48,0 КГц
Битовая глубина : 16 бит
Метод сжатия : Без потерь / Lossy
Язык : English
Default : Нет
Forced : Нет
Текст #1
Идентификатор : 5
Формат : UTF-8
Идентификатор кодека : S_TEXT/UTF8
Идентификатор кодека/Информация : UTF-8 Plain Text
Заголовок : Mokum
Язык : Russian
Default : Нет
Forced : Нет
Текст #2
Идентификатор : 6
Формат : UTF-8
Идентификатор кодека : S_TEXT/UTF8
Идентификатор кодека/Информация : UTF-8 Plain Text
Язык : English
Default : Нет
Forced : Нет
Меню
00:00:00.000 : :Chapter 01
00:08:05.583 : :Chapter 02
00:15:56.750 : :Chapter 03
00:24:33.666 : :Chapter 04
00:31:57.125 : :Chapter 05
00:40:24.083 : :Chapter 06
00:48:57.500 : :Chapter 07
00:56:09.416 : :Chapter 08
01:03:59.541 : :Chapter 09
01:11:41.458 : :Chapter 10
01:21:06.541 : :Chapter 11
01:29:05.250 : :Chapter 12

Скриншоты


Торент-файл перезалит. Добавлена дорога с DVD5 R5. Просьба перекачать файл.
Other forum [Profile] [PM]
Display posts from previous:    
Reply to topic

The time now is: Today 06:02

All times are GMT + 3 Hours



You cannot post new topics in this forum
You cannot reply to topics in this forum
You cannot edit your posts in this forum
You cannot delete your posts in this forum
You cannot vote in polls in this forum
You cannot attach files in this forum
You cannot download files in this forum