Today is a free download without charge Download

Цель номер один / Zero Dark Thirty (Кэтрин Бигелоу / Kathryn Bigelow) [2012, США, триллер, драма, история, BDRip 720p] Dub + AVO (Живов) + Ukr + Original + Comm + subs (Rus, Eng)

Reply to topic
 
Author
Message

Omen ®

Longevity: 8 years 5 months

Posts: 181087

Торрент-статистика

Post 10-Apr-2013 02:11

[Quote]

Цель номер один / Zero Dark Thirty- Год выпуска: 2012
Страна: США
Жанр: триллер, драма, история
Продолжительность: 02:36:59
Перевод 1: Профессиональный (полное дублирование)
Перевод 2: Авторский одноголосый Ю.Живов
Оригинальная звуковая дорожка: English
Cубтитры: Russian (Voronine), Russian (Ivanessen), English и др-Режиссер: Кэтрин Бигелоу / Kathryn Bigelow
В ролях: Джессика Честейн, Джейсон Кларк, Джоэл Эдгертон, Дженнифер Или, Марк Стронг, Кайл Чандлер, Эдгар Рамирез, Джеймс Гандольфини, Крис Прэтт, Каллэн Мулвей
Описание: История одной из операций спецслужб США по поимке «террориста N1» Усамы Бен Ладена.-DON!
Релиз: by sergey_n
Формат: MKV
Видео: 1280x692 at 23.976 fps, [email protected], ~6400 kbps avg
Аудио #1: Russian: 48 kHz, AC3, 3/2 (L,C,R,l,r) + LFE ch, ~448.00 kbps avg |Дубляж, R5|
Аудио #2: Russian: 48 kHz, AC3, 3/2 (L,C,R,l,r) + LFE ch, ~640.00 kbps avg |Одноголосый закадровый, Ю.Живов|
Аудио #3: Ukrainian: 48 kHz, AC3, 2/0 (L,R) ch, ~224.00 kbps avg |Многоголосый закадровый, Омикрон|
Аудио #4: English: 48 kHz, AC3, 3/2 (L,C,R,l,r) + LFE ch, ~640.00 kbps avg
Аудио #5: English: 48 kHz, AAC, 2/0 (L,R) ch, ~80.00 kbps avg |Комментарии|
Семпл-

Кадры из фильма


-

mInfo


Format : Matroska
Format version : Version 4 / Version 2
File size : 9.36 GiB
Duration : 2h 36mn
Overall bit rate : 8 535 Kbps
Movie name : Zero Dark Thirty (2012) - Release for HDCLUB
Encoded date : UTC 2013-04-09 18:49:01
Writing application : mkvmerge v6.0.0 ('Coming Up For Air') built on Jan 20 2013 09:52:00
Writing library : libebml v1.3.0 + libmatroska v1.4.0
Video
ID : 1
Format : AVC
Format/Info : Advanced Video Codec
Format profile : [email protected]
Format settings, CABAC : Yes
Format settings, ReFrames : 9 frames
Codec ID : V_MPEG4/ISO/AVC
Duration : 2h 36mn
Nominal bit rate : 6 400 Kbps
Width : 1 280 pixels
Height : 692 pixels
Display aspect ratio : 1.85:1
Frame rate mode : Constant
Frame rate : 23.976 fps
Color space : YUV
Chroma subsampling : 4:2:0
Bit depth : 8 bits
Scan type : Progressive
Bits/(Pixel*Frame) : 0.301
Title : Release for HDCLUB
Writing library : x264 core 130 r2273 b3065e6
Encoding settings : cabac=1 / ref=9 / deblock=1:-3:-3 / analyse=0x3:0x133 / me=tesa / subme=9 / psy=1 / psy_rd=1.10:0.10 / mixed_ref=1 / me_range=32 / chroma_me=1 / trellis=2 / 8x8dct=1 / cqm=0 / deadzone=21,11 / fast_pskip=0 / chroma_qp_offset=-3 / threads=12 / lookahead_threads=2 / sliced_threads=0 / nr=0 / decimate=0 / interlaced=0 / bluray_compat=0 / constrained_intra=0 / bframes=8 / b_pyramid=2 / b_adapt=2 / b_bias=0 / direct=1 / weightb=1 / open_gop=0 / weightp=2 / keyint=250 / keyint_min=23 / scenecut=40 / intra_refresh=0 / rc_lookahead=40 / rc=2pass / mbtree=0 / bitrate=6400 / ratetol=1.0 / qcomp=0.75 / qpmin=0 / qpmax=69 / qpstep=4 / cplxblur=20.0 / qblur=0.5 / vbv_maxrate=50000 / vbv_bufsize=50000 / nal_hrd=none / ip_ratio=1.20 / pb_ratio=1.30 / aq=1:0.80
Language : English
Default : No
Forced : No
Audio #1
ID : 2
Format : AC-3
Format/Info : Audio Coding 3
Mode extension : CM (complete main)
Format settings, Endianness : Big
Codec ID : A_AC3
Duration : 2h 36mn
Bit rate mode : Constant
Bit rate : 448 Kbps
Channel(s) : 6 channels
Channel positions : Front: L C R, Side: L R, LFE
Sampling rate : 48.0 KHz
Bit depth : 16 bits
Compression mode : Lossy
Stream size : 503 MiB (5%)
Title : AC3 5.1 ch 448 kbps Dub
Language : Russian
Default : Yes
Forced : No
Audio #2
ID : 3
Format : AC-3
Format/Info : Audio Coding 3
Mode extension : CM (complete main)
Format settings, Endianness : Big
Codec ID : A_AC3
Duration : 2h 36mn
Bit rate mode : Constant
Bit rate : 640 Kbps
Channel(s) : 6 channels
Channel positions : Front: L C R, Side: L R, LFE
Sampling rate : 48.0 KHz
Bit depth : 16 bits
Compression mode : Lossy
Stream size : 719 MiB (7%)
Title : AC3 5.1 ch 640 kbps Ю.Живов
Language : Russian
Default : No
Forced : No
Audio #3
ID : 4
Format : AC-3
Format/Info : Audio Coding 3
Mode extension : CM (complete main)
Format settings, Endianness : Big
Codec ID : A_AC3
Duration : 2h 36mn
Bit rate mode : Constant
Bit rate : 224 Kbps
Channel(s) : 2 channels
Channel positions : Front: L R
Sampling rate : 48.0 KHz
Bit depth : 16 bits
Compression mode : Lossy
Stream size : 252 MiB (3%)
Title : AC3 2 ch 224 kbps - MVO "Омикрон"
Language : Ukrainian
Default : No
Forced : No
Audio #4
ID : 5
Format : AC-3
Format/Info : Audio Coding 3
Mode extension : CM (complete main)
Format settings, Endianness : Big
Codec ID : A_AC3
Duration : 2h 36mn
Bit rate mode : Constant
Bit rate : 640 Kbps
Channel(s) : 6 channels
Channel positions : Front: L C R, Side: L R, LFE
Sampling rate : 48.0 KHz
Bit depth : 16 bits
Compression mode : Lossy
Stream size : 719 MiB (7%)
Title : AC3 5.1 ch 640 kbps
Language : English
Default : No
Forced : No
Audio #5
ID : 6
Format : AAC
Format/Info : Advanced Audio Codec
Format profile : HE-AAC / LC
Codec ID : A_AAC
Duration : 2h 36mn
Channel(s) : 6 channels
Channel positions : Front: L C R, Side: L R, LFE
Sampling rate : 48.0 KHz / 24.0 KHz
Compression mode : Lossy
Delay relative to video : 31ms
Title : Commentary Track
Language : English
Default : No
Forced : No
Text #1
ID : 7
Format : UTF-8
Codec ID : S_TEXT/UTF8
Codec ID/Info : UTF-8 Plain Text
Title : Voronine
Language : Russian
Default : No
Forced : No
Text #2
ID : 8
Format : UTF-8
Codec ID : S_TEXT/UTF8
Codec ID/Info : UTF-8 Plain Text
Title : Ivanessens
Language : Russian
Default : No
Forced : No
Text #3
ID : 9
Format : UTF-8
Codec ID : S_TEXT/UTF8
Codec ID/Info : UTF-8 Plain Text
Language : English
Default : No
Forced : No
Text #4
ID : 10
Format : UTF-8
Codec ID : S_TEXT/UTF8
Codec ID/Info : UTF-8 Plain Text
Title : Forced
Language : English
Default : No
Forced : No
Text #5
ID : 11
Format : UTF-8
Codec ID : S_TEXT/UTF8
Codec ID/Info : UTF-8 Plain Text
Title : SDH
Language : English
Default : No
Forced : No
Menu #1
00:00:00.000 : en:00:00:00.000
00:09:50.298 : en:00:09:50.298
00:15:42.650 : en:00:15:42.650
00:23:05.884 : en:00:23:05.884
00:31:23.048 : en:00:31:23.048
00:41:35.201 : en:00:41:35.201
00:50:30.694 : en:00:50:30.694
01:04:11.806 : en:01:04:11.806
01:13:37.705 : en:01:13:37.705
01:20:27.656 : en:01:20:27.656
01:34:05.849 : en:01:34:05.849
01:46:46.191 : en:01:46:46.191
01:53:17.332 : en:01:53:17.332
02:02:37.725 : en:02:02:37.725
02:14:08.874 : en:02:14:08.874
02:22:34.588 : en:02:22:34.588
Menu #2
00:00:00.097 : en:00:00:00.097

-
Цитата:

*** Сохранены оригинальные чаптеры как на Blu-ray.
*** Перевод Ю.Живова осуществлен совместными усилиями пользователей hdtracker: Xerman13, Chistobaev, ZeRoNe, olegsoleg, KpucTo161, sawyer4, Guyver, feldeger; e180: foxlight, Диммон, safreks, Slimka, Эдуард, пуля. Работа над дорогой - KpucTo161
*** За украинскую дорогу спасибо hurtom
Внимание! Торрент-файл заменен, заменена дорожка с переводом Ю.Живова. 09.04.2013 в 23:27 (MSK)
Цитата:
Дорога Живова пересобрана по новому: несколько поправлена тональность голоса Живова а так же совершенно по другому выставлена громкость голос/оригинал чем в первоисточнике
За помощь спасибо Прагматик
Other forum [Profile] [PM]
Display posts from previous:    
Reply to topic

The time now is: Today 06:27

All times are GMT + 3 Hours



You cannot post new topics in this forum
You cannot reply to topics in this forum
You cannot edit your posts in this forum
You cannot delete your posts in this forum
You cannot vote in polls in this forum
You cannot attach files in this forum
You cannot download files in this forum