Today is a free download without charge Download

Возвращение Мухтара 2 (Cезон 8, Cерия 41-64 из 96) (2012) SATRip

Reply to topic
 
Author
Message

UndegraundMen ®

Longevity: 8 years 9 months

Posts: 25145

Торрент-статистика

Post 10-Apr-2013 00:08

[Quote]

Возвращение Мухтара 2 (Cезон 8, Cерия 41-64 из 96) (2012) SATRip
- Русское название: Возвращение Мухтара 2 (Cезон 8)
Год выпуска: 2012
Жанр: Детектив, Криминал
Режиссер: Александр Крымов
Актеры: Алексей Шутов, Наталья Юнникова, Алексей Моисеев, Александр Воеводин, Константин Костышин, Оксана Сташенко, Александр Заднепровский, Нина Ильина, Александра Смолярова, Светлана Онищак, Александр Кулиш, Майя Кузьмишина, Алексей Арестович, Наталья Осадчук, Лилия Майборода, Арсений Назаренко, Иван Каблов, Ярослав Гончар, Владимир Ямненко, Сергей Кравчук, Ольга Миледьева, Сергей Вакациенко, Надежда Голубцова, Александр Сирик, Сергей Савенков (II), Святослав Фехтал, Олег Козак, Татьяна Стебловская, Юрий Степенный, Полина Голованова, Андрей Пархоменко, Сергей Михно, Юрий Тата, Александр Кочетков, Даниил Финько, Евгений Фалюш, Елена Шапаренко, Станислав Жирков, Денис Серна
Описание фильма: Приключения сплоченной команды сотрудников милиции и служебного пса Мухтара продолжаются. Оперативники Максим Жаров и Алексей Самойлов, следователь Василиса Михайлова и их четвероногий друг сталкиваются с самыми разными преступлениями. Чаще всего главную роль в расследованиях играет именно мохнатый страж порядка.

Названия серий:

41. Один день из жизни окорока (эфир от 19.11.2012г.)
42. Бэби-бум (эфир от 20.11.2012г.)
43. Несправедливое обвинение (эфир от 21.11.2012г.)
44. Тандем (эфир от 22.11.2012г.)
45. Ценная мишень (эфир от 26.11.2012г.)
46. Армейская почта (эфир от 27.11.2012г.)
47. Весь этот цирк (эфир от 28.11.2012г.)
48. Бесплатный торт в мышеловке (эфир от 29.11.2012г.)
49. Чужой наследник (эфир от 03.12.2012г.)
50. Третий талисман (эфир от 04.12.2012г.)
51. Астроном (эфир от 05.12.2012г.)
52. Внимание, черепаха! (эфир от 06.12.2012г.)
53. Счастье, уплывающее из рук (эфир от 10.12.2012г.)
54. Сюрприз (эфир от 11.12.2012г.)
55. Профилактика преступлений (эфир от 12.12.2012г.)
56. За тремя зайцами (эфир от 13.12.2012г.)
57. Родная кровь (эфир от 17.12.2012г.)
58. Второй роман (эфир от 18.12.2012г.)
59. Братцы-кролики (эфир от 19.12.2012г.)
60. Мнительность (эфир от 20.12.2012г.)
61. Письма от папы (эфир от 24.12.2012г.)
62. Неженское дело (эфир от 25.12.2012г.)
63. Ключ к разгадке (эфир от 26.12.2012г.)
64. Грабеж с ветерком (эфир от 27.12.2012г.)

Сэмпл: http://multi-up.com/852009
Продолжительность: 24х~00:47:50
Качество видео: SATRip
Видеокодек: Xvid
Битрейт видео: ~1551 Kbps
Размер кадра: 720x544
Аудиокодек: MP3
Битрейт аудио: 192 Kbps
Rip: Nikolspup
Реклама: Отсутствует, рип чистый

MediaInfo

E:\Фильмы\Возвращение.Мухтара.2.(8 сезон).2012.SATRip\Vozvraschenie.Muhtara.2.(8.sezon.64.seriya).2012.XviD.SATRip.Nikolspup.avi
General
  • Complete name : E:\Фильмы\Возвращение.Мухтара.2.(8 сезон).2012.SATRip\Vozvraschenie.Muhtara.2.(8.sezon.64.seriya).2012.XviD.SATRip.Nikolspup.avi
  • Format : AVI
  • Format/Info : Audio Video Interleave
  • File size : 595 MiB
  • Duration : 47mn 27s
  • Overall bit rate : 1 752 Kbps
  • Writing application : VirtualDubMod 1.5.10.3 | www.virtualdub-fr.org || (build 2550/release)
  • Writing library : VirtualDubMod build 2550/release
    Video #0
  • ID : 0
  • Format : MPEG-4 Visual
  • Format profile : Advanced [email protected]
  • Format settings, BVOP : 2
  • Format settings, QPel : No
  • Format settings, GMC : No warppoints
  • Format settings, Matrix : Custom
  • Codec ID : XVID
  • Codec ID/Hint : XviD
  • Duration : 47mn 27s
  • Bit rate : 1 551 Kbps
  • Width : 720 pixels
  • Height : 544 pixels
  • Display aspect ratio : 4:3
  • Frame rate : 25.000 fps
  • Color space : YUV
  • Chroma subsampling : 4:2:0
  • Bit depth : 8 bits
  • Scan type : Progressive
  • Compression mode : Lossy
  • Bits/(Pixel*Frame) : 0.158
  • Stream size : 526 MiB (88%)
  • Writing library : XviD 1.2.1 (UTC 2008-12-04)
    Audio #1
  • ID : 1
  • Format : MPEG Audio
  • Format version : Version 1
  • Format profile : Layer 3
  • Mode : Joint stereo
  • Mode extension : MS Stereo
  • Codec ID : 55
  • Codec ID/Hint : MP3
  • Duration : 47mn 27s
  • Bit rate mode : Constant
  • Bit rate : 192 Kbps
  • Channel(s) : 2 channels
  • Sampling rate : 48.0 KHz
  • Compression mode : Lossy
  • Stream size : 65.2 MiB (11%)
  • Alignment : Aligned on interleaves
  • Interleave, duration : 40 ms (1.00 video frame)
  • Interleave, preload duration : 504 ms
  • Writing library : LAME3.98r
  • Encoding settings : -m j -V 4 -q 2 -lowpass 18.6 -b 192
Скриншоты:
       
Время раздачи: С 10:00 до 21:00 по Москве
Other forum [Profile] [PM]
Display posts from previous:    
Reply to topic

The time now is: Today 22:42

All times are GMT + 3 Hours



You cannot post new topics in this forum
You cannot reply to topics in this forum
You cannot edit your posts in this forum
You cannot delete your posts in this forum
You cannot vote in polls in this forum
You cannot attach files in this forum
You cannot download files in this forum