Today is a free download without charge Download

Краплёный / Серии: 1-24 из 24 (2012) DVDRip

Reply to topic
 
Author
Message

UndegraundMen ®

Longevity: 8 years 9 months

Posts: 25145

Торрент-статистика

Post 10-Apr-2013 00:08

[Quote]

Краплёный / Серии: 1-24 из 24 (2012) DVDRip- Русское название: Краплёный
Год выпуска: 2012
Производство: Россия / Про-Синема продакшн
Жанр: Криминал
Перевод: Не требуется [Русский язык]
Субтитры: Отсутствуют
Режиссер: Ярослав Мочалов
Актеры: Валерий Золотухин, Андрей Феськов, Вячеслав Крикунов, Яна Гладких, Дарья Мороз, Павел Баршак, Владимир Зайцев, Игорь Бочкин, Алексей Гуськов, Владимир Капустин
Описание фильма:
Дружная команда молодых талантливых учёных разрабатывают идею, которая может в корне перевернуть принципы индивидуальной защиты силовых структур и армии. Они живут полнокровной жизнью в своём любимом деле, в любви к девушкам, в настоящей мужской дружбе и выручке. Но непредвиденная ситуация, подставившая под удар одного из них, заставляет пересмотреть привычные человеческие принципы. И в этой обстановке начинают работать более приземлённые, но в чём-то более справедливые «блатные» понятия. Лишь они, и сила духа помогут интеллигентным героям выбраться из скользкой ямы интриг, коррупции и обычного человеческого предательства.

Релиз от: Rip by Nikolspup, от RG GeneralFilm
Продолжительность серии: 24 x ~ 00:46:00
Качество видео: DVDRip
Видеокодек: XviD
Битрейт видео: ~ 1329 Kbps
Размер кадра: 720x384
Аудиокодек: MP3
Битрейт аудио: 128 Kbps-

MediaInfo

General
Complete name : D:\Загрузки\Раздачи\Krapljonyj.2012.DVDRip\Krapljonyj.(01.seriya.iz.24).2012.DVDRip.avi
Format : AVI
Format/Info : Audio Video Interleave
File size : 484 MiB
Duration : 46mn 4s
Overall bit rate : 1 470 Kbps
Writing application : Lavf52.33.0
Original source form/Name : Disk 1
Video
ID : 0
Format : MPEG-4 Visual
Format profile : [email protected]
Format settings, BVOP : No
Format settings, QPel : No
Format settings, GMC : No warppoints
Format settings, Matrix : Default (H.263)
Codec ID : XVID
Codec ID/Hint : XviD
Duration : 46mn 4s
Bit rate : 1 329 Kbps
Width : 720 pixels
Height : 384 pixels
Display aspect ratio : 1.875
Frame rate : 25.000 fps
Color space : YUV
Chroma subsampling : 4:2:0
Bit depth : 8 bits
Scan type : Progressive
Compression mode : Lossy
Bits/(Pixel*Frame) : 0.192
Stream size : 438 MiB (90%)
Writing library : XviD 1.2.1 (UTC 2008-12-04)
Audio
ID : 1
Format : MPEG Audio
Format version : Version 1
Format profile : Layer 3
Mode : Joint stereo
Mode extension : MS Stereo
Codec ID : 55
Codec ID/Hint : MP3
Duration : 46mn 4s
Bit rate mode : Constant
Bit rate : 128 Kbps
Channel(s) : 2 channels
Sampling rate : 48.0 KHz
Compression mode : Lossy
Stream size : 42.2 MiB (9%)
Alignment : Aligned on interleaves
Interleave, duration : 24 ms (0.60 video frame)
Interleave, preload duration : 24 ms
Writing library : LAME3.98.2
Скриншоты:
       
Other forum [Profile] [PM]
Display posts from previous:    
Reply to topic

The time now is: Today 23:16

All times are GMT + 3 Hours



You cannot post new topics in this forum
You cannot reply to topics in this forum
You cannot edit your posts in this forum
You cannot delete your posts in this forum
You cannot vote in polls in this forum
You cannot attach files in this forum
You cannot download files in this forum