Today is a free download without charge Download

Краплёный / Серии: 1-24 из 24 (2012) 2х DVD9

Reply to topic
 
Author
Message

UndegraundMen ®

Longevity: 8 years 9 months

Posts: 25145

Торрент-статистика

Post 10-Apr-2013 00:08

[Quote]

Краплёный / Серии: 1-24 из 24 (2012) 2х DVD9- Русское название: Краплёный
Год выпуска: 2012
Производство: Россия / Про-Синема продакшн
Жанр: Криминал
Перевод: Не требуется [Русский язык]
Субтитры: Отсутствуют
Режиссер: Ярослав Мочалов
Актеры: Валерий Золотухин, Андрей Феськов, Вячеслав Крикунов, Яна Гладких, Дарья Мороз, Павел Баршак, Владимир Зайцев, Игорь Бочкин, Алексей Гуськов, Владимир Капустин...
Описание фильма:
Дружная команда молодых талантливых учёных разрабатывают идею, которая может в корне перевернуть принципы индивидуальной защиты силовых структур и армии. Они живут полнокровной жизнью в своём любимом деле, в любви к девушкам, в настоящей мужской дружбе и выручке. Но непредвиденная ситуация, подставившая под удар одного из них, заставляет пересмотреть привычные человеческие принципы. И в этой обстановке начинают работать более приземлённые, но в чём-то более справедливые «блатные» понятия. Лишь они, и сила духа помогут интеллигентным героям выбраться из скользкой ямы интриг, коррупции и обычного человеческого предательства.

Продолжительность сериала: 1152 мин
Количество серий: 24
Продолжительность серии: ~ 46 мин
Качество видео: DVD9 R5
Видеокодек: MPEG-2
Битрейт видео: ~ 5 481 Kbps
Размер кадра: PAL 16:9 ([email protected]х576)
Аудиокодек: AC3 2.0
Битрейт аудио: 96.00 kbps
Меню: Анимированное
Дополнительные материалы: Нет
Релиз группа:

Disk 1:

DVD Info

Title: Disk 1
Size: 7.81 Gb ( 8 184 214,00 KBytes ) - DVD-9
Enabled regions: 1, 2, 3, 4, 5, 6, 7, 8
VTS_01 :
Play Length: 00:46:04+00:46:05+00:46:32+00:46:15+00:46:05+00:46:17+00:47:19+00:46:58+00:47:15+00:46:56+00:46:08+00:46:13
Video: PAL 16:9 (720x576) VBR, Auto Letterboxed
Audio:
English, AC3, 2/0 (L,R) ch, 96 kbps, Delay 0 mSec

MediaInfo:

General
Complete name : D:\Video\Krapljonyj.2012.2xDVD9\Disk 1\VIDEO_TS\VTS_01_1.VOB
Format : MPEG-PS
File size : 1 024 MiB
Duration : 25mn 9s
Overall bit rate mode : Variable
Overall bit rate : 5 690 Kbps
Video
ID : 224 (0xE0)
Format : MPEG Video
Format version : Version 2
Format profile : [email protected]
Format settings, BVOP : Yes
Format settings, Matrix : Default
Format settings, GOP : Variable
Duration : 25mn 9s
Bit rate mode : Variable
Bit rate : 5 481 Kbps
Maximum bit rate : 9 200 Kbps
Width : 720 pixels
Height : 576 pixels
Display aspect ratio : 16:9
Frame rate : 25.000 fps
Standard : PAL
Color space : YUV
Chroma subsampling : 4:2:0
Bit depth : 8 bits
Scan type : Progressive
Compression mode : Lossy
Bits/(Pixel*Frame) : 0.529
Time code of first frame : 00:00:00:00
Time code source : Group of pictures header
Stream size : 986 MiB (96%)
Audio
ID : 189 (0xBD)-128 (0x80)
Format : AC-3
Format/Info : Audio Coding 3
Mode extension : CM (complete main)
Format settings, Endianness : Big
Muxing mode : DVD-Video
Duration : 25mn 9s
Bit rate mode : Constant
Bit rate : 96.0 Kbps
Channel(s) : 2 channels
Channel positions : Front: L R
Sampling rate : 48.0 KHz
Bit depth : 16 bits
Compression mode : Lossy
Stream size : 17.3 MiB (2%)
Menu

Меню:

   

Disk 2:

DVD Info

Title: Disk 2
Size: 7.93 Gb ( 8 315 142,00 KBytes ) - DVD-9
Enabled regions: 1, 2, 3, 4, 5, 6, 7, 8
VTS_01 :
Play Length: 00:46:18+00:46:36+00:46:22+00:46:21+00:47:05+00:46:59+00:46:36+00:47:18+00:46:10+00:46:21+00:46:04+00:46:45
Video: PAL 16:9 (720x576) VBR, Auto Letterboxed
Audio:
  • English, AC3, 2/0 (L,R) ch, 96 kbps, Delay 0 mSec

MediaInfo:

General
Complete name : D:\Video\Krapljonyj.2012.2xDVD9\Disk 2\VIDEO_TS\VTS_01_1.VOB
Format : MPEG-PS
File size : 1 024 MiB
Duration : 25mn 9s
Overall bit rate mode : Variable
Overall bit rate : 5 689 Kbps
Video
ID : 224 (0xE0)
Format : MPEG Video
Format version : Version 2
Format profile : [email protected]
Format settings, BVOP : Yes
Format settings, Matrix : Default
Format settings, GOP : Variable
Duration : 25mn 9s
Bit rate mode : Variable
Bit rate : 5 480 Kbps
Maximum bit rate : 9 200 Kbps
Width : 720 pixels
Height : 576 pixels
Display aspect ratio : 16:9
Frame rate : 25.000 fps
Standard : PAL
Color space : YUV
Chroma subsampling : 4:2:0
Bit depth : 8 bits
Scan type : Progressive
Compression mode : Lossy
Bits/(Pixel*Frame) : 0.529
Time code of first frame : 00:00:00:00
Time code source : Group of pictures header
Stream size : 986 MiB (96%)
Audio
ID : 189 (0xBD)-128 (0x80)
Format : AC-3
Format/Info : Audio Coding 3
Mode extension : CM (complete main)
Format settings, Endianness : Big
Muxing mode : DVD-Video
Duration : 25mn 9s
Bit rate mode : Constant
Bit rate : 96.0 Kbps
Channel(s) : 2 channels
Channel positions : Front: L R
Sampling rate : 48.0 KHz
Bit depth : 16 bits
Compression mode : Lossy
Stream size : 17.3 MiB (2%)
Menu

Меню:

   

Полиграфия:

     
Скриншоты:
         
       
Время раздачи: 24/7 - круглосуточно
Other forum [Profile] [PM]
Display posts from previous:    
Reply to topic

The time now is: Today 18:39

All times are GMT + 3 Hours



You cannot post new topics in this forum
You cannot reply to topics in this forum
You cannot edit your posts in this forum
You cannot delete your posts in this forum
You cannot vote in polls in this forum
You cannot attach files in this forum
You cannot download files in this forum