Today is a free download without charge Download

Чужой район 2 (серии 1-2 из 24) 2013 DVB (обновляемая)

Reply to topic
 
Author
Message

UndegraundMen ®

Longevity: 8 years 9 months

Posts: 25145

Торрент-статистика

Post 10-Apr-2013 00:08

[Quote]

Чужой район 2 (серии 1-2 из 24) 2013 DVB (обновляемая)- Русское название: Чужой район 2
Производство: «Триикс Медиа»
Год выпуска: 2013
Жанр: Криминал, Детектив
Режиссер: Максим Бриус
Актеры: Денис Рожков, Кирилл Полухин, Игорь Головин, Зоя Буряк, Сергей Колос, Екатерина Проскурина, Юрий Архангельский, Алексей Нилов, Вячеслав Аркунов, Алексей Одинг, Оксана Скакун, Сергей Черапкин, Вадим Лымарь, Александр Стекольников, Сергей Рублёв, Елена Лопаткина, Геннадий Макоев, Дмитрий Белов, Сергей Малюгов, Инна Корнышева, Ринат Муталлапов, Артур Федынко, Павел Гончаров
Описание фильма:
Сотрудник уголовного розыска Андрей Фролов — белая ворона. Ему не нравятся методы работы коллег, он не желает участвовать в допросах, которые ведутся с применением насилия и давления. После того как Андрей обезвредил преступника, который оказался внуком влиятельного лица, ему ставят ультиматум: он должен уйти из розыска по собственному желанию, или…
Андрей переводится в участковые, и по чьей-то «злой воле», ему доверяют самый сложный в криминальном плане, отдаленный район под названием «Молот» (Красный молот). Это микрорайон на окраине Мегаполиса, бывший рабочий поселок имени Красных Молотобойцев. До ближайшего метро — 15 минут маршруткой, которая ходит «раз в год по обещанию»…
Микрорайон с типичными прелестями спально-рабочих районов. Чем-то смахивает на Дикий Запад — здесь свои законы, каждый сам себе защитник. По сути, районом управляет Авторитет (здесь закон — это он). Жизнь в районе сурова, но в большинстве своём, его жители, несмотря на непритязательность и простоту, оказываются правильными и настоящими.

Продолжительность: ~ 00:45:00
Качество видео: DVBRip
Видеокодек: MPEG-2
Битрейт видео: ~5100 Kbps
Размер кадра: 720x576
Аудиокодек: MP2
Битрейт аудио: 2 ch, 192 Kbps

MediaInfo:

Код:
Общее
Полное имя : G:\DOWNLOADS\Чужой район 2 (2013) DVB\Чужой район 2 - 01 серия.mpg
Формат : MPEG-PS
Размер файла : 1,71 Гбайт
Продолжительность : 45 м.
Режим общего битрейта : Переменный
Общий поток : 5441 Кбит/сек
Библиотека кодирования : (c) 1998-2012 Womble Multimedia, Inc. / MPEG Video Wizard DVD 5.0.1.100 (03/2011) / Sep 7 2012
Видео
Идентификатор : 224 (0xE0)
Формат : MPEG Video
Версия формата : Version 2
Профиль формата : [email protected]
Параметр BVOP формата : Да
Параметр матрицы формата : Выборочная
Параметр GOP формата : Variable
Продолжительность : 45 м.
Вид битрейта : Переменный
Битрейт : 5141 Кбит/сек
Максимальный битрейт : 15,0 Мбит/сек
Ширина : 720 пикселей
Высота : 576 пикселей
Соотношение сторон : 4:3
Частота кадров : 25,000 кадров/сек
Стандарт вещания : PAL
Цветовое пространство : YUV
Субдискретизация насыщенности : 4:2:0
Битовая глубина : 8 бит
Тип развёртки : Чересстрочная
Порядок развёртки : Верхнее поле первое
Метод сжатия : С потерями
Бит/(Пиксели*Кадры) : 0.496
TimeCode_FirstFrame : 00:00:00:00
TimeCode_Source : Group of pictures header
Размер потока : 1,62 Гбайт (94%)
Библиотека кодирования : (c) 1998-2012 Womble Multimedia, Inc. / MPEG Video Wizard DVD 5.0.1.100 (03/2011) / Sep 7 2012
Аудио
Идентификатор : 192 (0xC0)
Формат : MPEG Audio
Версия формата : Version 1
Профиль формата : Layer 2
Продолжительность : 45 м.
Вид битрейта : Постоянный
Битрейт : 192 Кбит/сек
Каналы : 2 канала
Частота : 48,0 КГц
Метод сжатия : С потерями
Задержка видео : -40 мс.
Размер потока : 61,8 Мбайт (4%)

Описание обновления торрента

Внимание! Раздача ведётся путём добавления новых серий; при каждом добавлении создётся новый торрент. Чтобы начать докачку новой серии, пользователям необходимо сделать следующее:
1. Остановить скачивание.
2. Удалить старый торрент у себя из клиента (старые серии удалять не надо).
3. Скачать новый торрент и запустить его у себя в клиенте вместо старого, при этом указать клиенту путь в старую папку куда и должно происходить скачивание новых серий.
Ваш клиент при этом должен произвести хеширование (проверку) старой папки (если не производит сам - помогите ему сделать это), и будет докачивать только те серии которых у вас ещё нет. Старые серии при этом не удаляются, а продолжают раздаваться!
Eсли вы уже удалили старые серии, то предотвратить повторную закачку старых серий можно, отжав галочку в соответсвующих местах при запуске нового торрента. По возможности, желательно не удалять старые серии как можно дольше чтобы релизёр не столько продолжал раздавать старые серии, а смог сконцентрироваться на новых.
Скриншоты:
Other forum [Profile] [PM]
Display posts from previous:    
Reply to topic

The time now is: Today 05:49

All times are GMT + 3 Hours



You cannot post new topics in this forum
You cannot reply to topics in this forum
You cannot edit your posts in this forum
You cannot delete your posts in this forum
You cannot vote in polls in this forum
You cannot attach files in this forum
You cannot download files in this forum