Today is a free download without charge Download

Выхожу тебя искать-2 [1-3 серии из 12] (2012) SATRip [Обновляемая]

Reply to topic
 
Author
Message

UndegraundMen ®

Longevity: 8 years 9 months

Posts: 25145

Торрент-статистика

Post 10-Apr-2013 00:08

[Quote]

Выхожу тебя искать-2 [1-3 серии из 12] (2012) SATRip [Обновляемая]- Русское название: Выхожу тебя искать-2
Выпущено: Россия
Год выпуска: 2012
Жанр: Мелодрама, Криминал, Детектив
Перевод: Оригинал (Русский)
Субтитры: Отсутствуют

Дата российской премьеры: 8 апреля 2013
Режиссер: Сергей Бобров
Актеры: Ольга Арнтгольц, Константин Соловьёв, Николай Иванов, Наташа Швец, Даниил Кокин, Алексей Лунёв, Максим Туранцев, Татьяна Косач-Брындина, Дмитрий Ендальцев, Ирина Бразговка, Жанна Эппле, Эрик Дик, Сергей Шеховцов, Елена Старостина, Александр Зельский, Надежда Евтехова, Марина Петренко, Владимир Жарков, Лилия Разакова, Дмитрий Мазуров
Описание фильма:
Прошло почти четыре года. Братья Демировы работают всё в том же отделе "Р". Михаил, похоже, остепенился. У него длительные - двухлетние - отношения с девушкой. Живут под одной крышей, строят планы на будущее, все идет к свадьбе. В семье у Дениса тоже всё замечательно. Единственное, что омрачает жизнь - отсутствие детей. После очередного безрезультатного курса лечения, Ольга решается на усыновление. Денис на словах тоже "за".Рита вынуждена обратиться за помощью к Демировым - её приемный отец, доктор Высоцкий, уехал в Москву в командировку, и не вернулся. Рита пробует самостоятельно искать его по горячим следам, но в конце концов приходит в отдел "Р" к Демировым за помощью. Когда становится очевидно, что следствие будет долгим, Рита принимает предложение вернуться в отдел на работу, и заниматься поисками отца в свободное от основной работы время. Но Рита не рассказывает братьям всю правду – три года назад она родила от Дениса дочь…
Продолжительность: 3 х ~ 00:51:09 серия
Качество видео: SATRip
Видеокодек: DivX 5
Битрейт видео: ~1498 Kbit/s
Размер кадра: 704 x 368
Аудиокодек: MP3, 2.0
Битрейт аудио: 128 Kbit/sВнимание! Раздача ведётся путём добавления новых серий

Внимание! Раздача ведётся путём добавления новых серий. Описание обновления торрента.

Внимание! Раздача ведётся путём добавления новых серий; при каждом добавлении создётся новый торрент. Чтобы начать докачку новой серии, пользователям необходимо сделать следующее:
(1) остановить скачивание,
(2) удалить старый торрент у себя из клиента (старые серии удалять не надо),
(3) скачать новый торрент и запустить его у себя в клиенте вместо старого, при этом указать клиенту путь в старую папку куда и должно происходить скачивание новых серий.
Ваш клиент при этом должен произвести хеширование (проверку) старой папки (если не производит сам - помогите ему сделать это), и будет докачивать только те серии которых у вас ещё нет. Старые серии при этом не удаляются, а продолжают раздаваться!
Eсли вы уже удалили старые серии, то предотвратить повторную закачку старых серий можно, отжав галочку в соответсвующих местах при запуске нового торрента. По возможности, желательно не удалять старые серии как можно дольше чтобы релизёр не столько продолжал раздавать старые серии, а смог сконцентрироваться на новых.

MediaInfo

Общее
Полное имя : D:\Торренты\ФИЛЬМЫ торента\Выхожу тебя искать-2. 2012. SATRip\Выхожу тебя искать-2.01.avi
Формат : AVI
Формат/Информация : Audio Video Interleave
Размер файла : 599 Мбайт
Продолжительность : 51 м.
Общий поток : 1636 Кбит/сек
Программа кодирования : VirtualDubMod 1.5.10.2 (build 2540/release)
Библиотека кодирования : VirtualDub build 29808/release
Видео
Идентификатор : 0
Формат : MPEG-4 Visual
Параметр BVOP формата : Нет
Параметр QPel формата : Нет
Параметр GMC формата : Без точки перехода
Параметр матрицы формата : Default (H.263)
Идентификатор кодека : DX50
Идентификатор кодека/Подсказка : DivX 5
Продолжительность : 51 м.
Битрейт : 1498 Кбит/сек
Ширина : 704 пикс.
Высота : 368 пикс.
Соотношение сторон : 1,913
Частота кадров : 25,000 кадр/сек
Цветовое пространство : YUV
Подвыборка цветности : 4:2:0
Битовая глубина : 8 бит
Тип развёртки : Прогрессивная
Метод сжатия : С потерями
Бит/(Пиксели*Кадры) : 0.231
Размер потока : 548 Мбайт (92%)
Библиотека кодирования : DivX 6.8.5 (UTC 2009-08-20)
Аудио
Идентификатор : 1
Формат : MPEG Audio
Версия формата : Version 1
Профиль формата : Layer 3
Режим : Joint stereo
Расширение режима : MS Stereo
Идентификатор кодека : 55
Идентификатор кодека/Подсказка : MP3
Продолжительность : 51 м.
Вид битрейта : Постоянный
Битрейт : 128 Кбит/сек
Каналы : 2 канала
Частота : 48,0 КГц
Метод сжатия : С потерями
Размер потока : 46,8 Мбайт (8%)
Выравнивание : Соединение по промежуткам
Продолжительность промежутка : 40 мс. (1,00 видеокадр)
Время предзагрузки промежутка : 504 ms
Скриншоты:
           
Время раздачи: 24/7 по возможности Выхожу тебя искать на NNM-club
Other forum [Profile] [PM]
Display posts from previous:    
Reply to topic

The time now is: Today 17:39

All times are GMT + 3 Hours



You cannot post new topics in this forum
You cannot reply to topics in this forum
You cannot edit your posts in this forum
You cannot delete your posts in this forum
You cannot vote in polls in this forum
You cannot attach files in this forum
You cannot download files in this forum