Today is a free download without charge Download

Все начинается с любви (2004) DVDRip

Reply to topic
 
Author
Message

UndegraundMen ®

Longevity: 8 years 9 months

Posts: 25145

Торрент-статистика

Post 10-Apr-2013 00:08

[Quote]

Все начинается с любви (2004) DVDRip- Русское название: Все начинается с любви
Год выпуска: 2004
Жанр: Мелодрама
Режиссер:Константин Виткин
Актеры:Ярослав Бойко, Евгения Михайлова, Валентин Гафт, Владимир Горюшин, Алексей Панин, Станислав Бондаренко, Андрей Аверьянов, Михаил Жигалов
Описание фильма:
По новелле Константина Паустовского "Ручьи, где плещется форель". Молодой полковник Андрей Бадьин, проходящий службу в Афганистане, прибывает в Генеральный штаб для получения звания генерала и звезды героя. Накануне отбытия в Кабул он знакомится с молодой и талантливой певицей Марией. Эта встреча переворачивает его жизнь. Но влюбленным предстоит расстаться. Мария едет за границу на гастроли и остается там навсегда. Вновь они встретятся только восемь лет спустя...
Продолжительность: 3 х ~ 00:42:30

Видеокодек: Xvid
Битрейт видео: ~1214 Кбит/сек
Размер кадра: 688x384
Качество видео:
Аудиокодек: AC3, 2 канала, 48 КГц
Битрейт аудио: 256 Кбит/сек

МедиаИнфо:

General
  • Format : AVI
  • Format/Info : Audio Video Interleave
  • File size : 452 MiB
  • Duration : 43mn 57s
  • Overall bit rate : 1 439 Kbps
    Video #0
  • ID : 0
  • Format : MPEG-4 Visual
  • Format profile : Advanced [email protected]
  • Format settings, BVOP : 1
  • Format settings, QPel : No
  • Format settings, GMC : No warppoints
  • Format settings, Matrix : Default (H.263)
  • Muxing mode : Packed bitstream
  • Codec ID : XVID
  • Codec ID/Hint : XviD
  • Duration : 43mn 57s
  • Bit rate : 1 173 Kbps
  • Width : 688 pixels
  • Height : 384 pixels
  • Display aspect ratio : 16:9
  • Frame rate : 25.000 fps
  • Color space : YUV
  • Chroma subsampling : 4:2:0
  • Bit depth : 8 bits
  • Scan type : Progressive
  • Compression mode : Lossy
  • Bits/(Pixel*Frame) : 0.178
  • Stream size : 369 MiB (82%)
  • Writing library : XviD 1.1.0 (UTC 2005-11-22)
    Audio #1
  • ID : 1
  • Format : AC-3
  • Format/Info : Audio Coding 3
  • Mode extension : CM (complete main)
  • Codec ID : 2000
  • Duration : 43mn 57s
  • Bit rate mode : Constant
  • Bit rate : 256 Kbps
  • Channel(s) : 2 channels
  • Channel positions : Front: L R
  • Sampling rate : 48.0 KHz
  • Bit depth : 16 bits
  • Compression mode : Lossy
  • Stream size : 80.5 MiB (18%)
  • Alignment : Split accross interleaves
  • Interleave, duration : 40 ms (1.00 video frame)
  • Interleave, preload duration : 500 ms
Скриншоты:

Время раздачи: круглосуточно
Other forum [Profile] [PM]
Display posts from previous:    
Reply to topic

The time now is: Today 16:58

All times are GMT + 3 Hours



You cannot post new topics in this forum
You cannot reply to topics in this forum
You cannot edit your posts in this forum
You cannot delete your posts in this forum
You cannot vote in polls in this forum
You cannot attach files in this forum
You cannot download files in this forum