Today is a free download without charge Download

Другой мир: Восстание ликанов / Underworld: Rise of the Lycans (Патрик Татопулос / Patrick Tatopoulos) [ 2009 , США, Новая Зеландия , фантастика, фэнтези, боевик , BDRip 1080p ]

Reply to topic
 
Author
Message

Delia ®

Gender:

Longevity: 10 years

Posts: 1821

Торрент-статистика

Post 09-Apr-2013 08:55

[Quote]

-Другой мир: Восстание ликановUnderworld: Rise of the Lycans«У каждой войны есть начало»-- Год выпуска: 2008
Страна: США, Новая Зеландия
Жанр: фантастика, фэнтези, боевик, триллер, приключения
Продолжительность: 01:32:28
Перевод: Профессиональный (полное дублирование)
Режиссер: Патрик Татопулос / Patrick Tatopoulos

В ролях: Майкл Шин (Lucian), Билл Найи (Viktor), Рона Митра (Sonja), Стивен Макинтош (Tannis), Кевин Гревье (Raze), Дэвид Эстон (Coloman), Джеральдин Брофи (Nobleman's Wife), Лейтон Кардно (Fearful Lycan), Алекс Кэрролл (Young Lucian), Элизабет Хоторн (Orsova), Джейсон Худ (Death Dealer), Марк Митчинсон (Nobleman)-Описание: История, прослеживающая происхождение вековой кровной мести, между аристократическими вампирами, известными как Торговцы смертью и их рабами. Молодой ликан по имени Люциан - мощный лидер, который сплачивает оборотней, чтобы выступить против Виктора, жестокого короля вампиров, который поработил их. К Люциану присоединяется Соня, и помогает ему в его борьбе против смертоносной армии торговцев смертью и борьбе за свободу ликанов.-- Бюджет: $35 000 000
Сборы в США: $45 802 315
Сборы в России: $3 168 578
Сборы в мире: $91 327 197
Мировая премьера: 22 января 2009
Релиз на DVD: 12 марта 2009, «Columbia/Sony»
Релиз на Blu-ray: 18 июня 2009, «Columbia/Sony»-
Рейтинг MPAA: Лицам до 17 лет обязательно присутствие взрослого
Рейтинг ВКИП: Запрещено для детей --
Качество: BDRip
Контейнер: MKV
Видео: AVC, 1920x800 (2.40:1), 11029 kbps, 23,976 fps, 0,299 bpp
Аудио №1: русский /; AC3 /; 5.1 /; 48 kHz /; 640 kbps /; 16 bit; ||
Аудио №2: английский /; AC3 /; 5.1 /; 48 kHz /; 640 kbps /; 16 bit
Субтитры №1: русские
Субтитры №2: английские--

Media Info

General
Unique ID : 202334745852466082524326350338263463601 (0x9838412C555C11E4B7AB8AA6B275B6B1)
Complete name : E:\Torrent\Underworld Rise of the Lycans.2009.1080p.F-HD.mkv
Format : Matroska
Format version : Version 4 / Version 2
File size : 7.94 GiB
Duration : 1h 32mn
Overall bit rate : 12.3 Mbps
Encoded date : UTC 2013-04-09 04:45:26
Writing application : mkvmerge v6.0.0 ('Coming Up For Air') built on Jan 20 2013 09:52:00
Writing library : libebml v1.3.0 + libmatroska v1.4.0
Video
ID : 1
Format : AVC
Format/Info : Advanced Video Codec
Format profile : [email protected]
Format settings, CABAC : Yes
Format settings, ReFrames : 5 frames
Codec ID : V_MPEG4/ISO/AVC
Duration : 1h 32mn
Bit rate : 11.0 Mbps
Width : 1 920 pixels
Height : 800 pixels
Display aspect ratio : 2.40:1
Frame rate : 23.976 fps
Color space : YUV
Chroma subsampling : 4:2:0
Bit depth : 8 bits
Scan type : Progressive
Bits/(Pixel*Frame) : 0.299
Stream size : 6.96 GiB (88%)
Writing library : x264 core 129 r2230 1cffe9f
Encoding settings : cabac=1 / ref=5 / deblock=1:-3:-3 / analyse=0x3:0x113 / me=umh / subme=11 / psy=1 / psy_rd=1.10:0.05 / mixed_ref=1 / me_range=48 / chroma_me=1 / trellis=2 / 8x8dct=1 / cqm=0 / deadzone=21,11 / fast_pskip=0 / chroma_qp_offset=-3 / threads=6 / lookahead_threads=1 / sliced_threads=0 / nr=0 / decimate=0 / interlaced=0 / bluray_compat=0 / constrained_intra=0 / bframes=9 / b_pyramid=2 / b_adapt=2 / b_bias=0 / direct=3 / weightb=1 / open_gop=0 / weightp=2 / keyint=240 / keyint_min=23 / scenecut=40 / intra_refresh=0 / rc_lookahead=40 / rc=2pass / mbtree=0 / bitrate=11029 / ratetol=1.0 / qcomp=0.80 / qpmin=10 / qpmax=51 / qpstep=4 / cplxblur=20.0 / qblur=0.5 / vbv_maxrate=50000 / vbv_bufsize=65000 / nal_hrd=none / ip_ratio=1.40 / pb_ratio=1.20 / aq=1:0.85
Language : English
Default : Yes
Forced : No
Color primaries : BT.709-5, BT.1361, IEC 61966-2-4, SMPTE RP177
Transfer characteristics : BT.709-5, BT.1361
Matrix coefficients : BT.709-5, BT.1361, IEC 61966-2-4 709, SMPTE RP177
Audio #1
ID : 2
Format : AC-3
Format/Info : Audio Coding 3
Mode extension : CM (complete main)
Codec ID : A_AC3
Duration : 1h 32mn
Bit rate mode : Constant
Bit rate : 640 Kbps
Channel(s) : 6 channels
Channel positions : Front: L C R, Side: L R, LFE
Sampling rate : 48.0 KHz
Bit depth : 16 bits
Compression mode : Lossy
Stream size : 423 MiB (5%)
Language : Russian
Default : Yes
Forced : No
Audio #2
ID : 3
Format : AC-3
Format/Info : Audio Coding 3
Mode extension : CM (complete main)
Codec ID : A_AC3
Duration : 1h 32mn
Bit rate mode : Constant
Bit rate : 640 Kbps
Channel(s) : 6 channels
Channel positions : Front: L C R, Side: L R, LFE
Sampling rate : 48.0 KHz
Bit depth : 16 bits
Compression mode : Lossy
Stream size : 423 MiB (5%)
Language : English
Default : No
Forced : No
Text #1
ID : 4
Format : UTF-8
Codec ID : S_TEXT/UTF8
Codec ID/Info : UTF-8 Plain Text
Language : Russian
Default : No
Forced : No
Text #2
ID : 5
Format : UTF-8
Codec ID : S_TEXT/UTF8
Codec ID/Info : UTF-8 Plain Text
Language : English
Default : No
Forced : No



_________________
Человек – это канат, натянутый между животным и сверхчеловеком, – канат над пропастью.
В человеке ценно то, что он мост, а не цель. Фридрих Ницше
Other forum [Profile] [PM]
Similar theme
Forum Topic Author Torrent Replies Last Post
./templates/default/images/folder_dl.gif Фантастика, фэнтези, ужасы, мистика Наиль Выборнов | Метро 2033: На другой стороне (2018) [FB2] }{@R0N
1 | 0

0 | 455

3

2019-01-12 17:27
}{@R0N Latest
Display posts from previous:    
Reply to topic

The time now is: Today 01:43

All times are GMT + 3 Hours



You cannot post new topics in this forum
You cannot reply to topics in this forum
You cannot edit your posts in this forum
You cannot delete your posts in this forum
You cannot vote in polls in this forum
You cannot attach files in this forum
You cannot download files in this forum