Today is a free download without charge Download

Тристана / Tristana (Луис Бунюэль / Luis Bunuel) [1970, Испания, Италия, Франция, драма, BDRip 720p] MVO + Sub Eng + Original Spa

Reply to topic
 
Author
Message

Omen ®

Longevity: 8 years 5 months

Posts: 181087

Торрент-статистика

Post 09-Apr-2013 05:32

[Quote]

Тристана / Tristana
Страна: Испания, Италия, Франция
Жанр: драма
Год выпуска: 1970
Продолжительность: 01:39:11
Перевод: Профессиональный (многоголосый закадровый)
Cубтитры: английские
Оригинальная аудиодорожка: испанский-Режиссер: Луис Бунюэль / Luis Bunuel
В ролях: Катрин Денёв, Фернандо Рей, Франко Неро, Лола Гаос, Антонио Касас, Хесус Фернандес, Висенте Солер, Хосе Кальво, Фернандо Себриан, Антонио Феррандис
Описание: После смерти матери восемнадцатилетняя девушка Тристана вынуждена поселиться у своего опекуна – свободомыслящего полуразорившегося аристократа Дона Лопе. Вскоре она становится его любовницей, несмотря на смешанное чувство, которое испытывает Тристана к своему опекуну. Но…, как известно, не всегда «волки и овцы» в человеческом обличье так уж отличны друг от друга, на первый взгляд…
IMDb || КиноПоиск-Тип релиза: BDRip 720p [EbP]
Контейнер: MKV
Видео: H.264/AVC, 1196x720 at 23.976 fps, ~10200 kbps
Аудио#1: Russian: 48 kHz, AC3, 1.0 @192.00kbps |Многоголосый закадровый|
Аудио#2: Spanish: 48 kHz, AC3, 5.1 @640.00kbps
Аудио#3: English 48 kHz, AC3 2.0 @128Kbps |Commentary|
Формат субтитров: softsub (SRT)
Сэмпл

MediaInfo

Release Information

RELEASE NAME..: Tristana 1970 720p BluRay x264 EbP
RELEASE DATE..: Mar 14 2013
RUNTiME.......: 1h:39mn
SiZE..........: 7.76 GiB
ViDEO CODEC...: x264, CRF, L4.1
FRAMERATE.....: 23.976 fps
BiTRATE.......: 10200 Kbps (avg.)
RESOLUTiON....: 1198*720
AUDiO.........: Spanish AC3 5.1 @640Kbps
AUDiO 2.......: English AC3 2.0 @128Kbps (Commentary)
SUBTiTLES.....: Eng (.srt)
CHAPTER.......: Yes/Named
SOURCE........: Tristana 1970 1080p Blu-ray AVC DTS-HD MA 5.1-HDRoad
Format : Matroska
Format version : Version 2
File size : 7.89 GiB
Duration : 1h 39mn
Overall bit rate : 11.4 Mbps
Encoded date : UTC 2013-04-08 20:42:27
Writing application : mkvmerge v5.0.1 ('Es ist Sommer') built on Nov 6 2011 16:23:40
Writing library : libebml v1.2.2 + libmatroska v1.3.0
Video
ID : 1
Format : AVC
Format/Info : Advanced Video Codec
Format profile : [email protected]
Format settings, CABAC : Yes
Format settings, ReFrames : 9 frames
Codec ID : V_MPEG4/ISO/AVC
Duration : 1h 39mn
Bit rate : 10.2 Mbps
Width : 1 198 pixels
Height : 720 pixels
Display aspect ratio : 1.664
Frame rate : 23.976 fps
Color space : YUV
Chroma subsampling : 4:2:0
Bit depth : 8 bits
Scan type : Progressive
Bits/(Pixel*Frame) : 0.494
Stream size : 7.07 GiB (90%)
Title : EbP
Writing library : x264 core 129 r2245 bc13772
Encoding settings : cabac=1 / ref=9 / deblock=1:-3:-3 / analyse=0x3:0x113 / me=tesa / subme=10 / psy=1 / psy_rd=1.00:0.00 / mixed_ref=1 / me_range=16 / chroma_me=1 / trellis=2 / 8x8dct=1 / cqm=0 / deadzone=21,11 / fast_pskip=0 / chroma_qp_offset=-2 / threads=12 / lookahead_threads=2 / sliced_threads=0 / nr=0 / decimate=0 / interlaced=0 / bluray_compat=0 / constrained_intra=0 / bframes=9 / b_pyramid=2 / b_adapt=2 / b_bias=0 / direct=3 / weightb=1 / open_gop=0 / weightp=2 / keyint=250 / keyint_min=23 / scenecut=40 / intra_refresh=0 / rc=crf / mbtree=0 / crf=17.0 / qcomp=0.70 / qpmin=0 / qpmax=69 / qpstep=4 / ip_ratio=1.40 / pb_ratio=1.30 / aq=1:0.65
Language : English
Default : Yes
Forced : No
Matrix coefficients : BT.709-5, BT.1361, IEC 61966-2-4 709, SMPTE RP177
Audio #1
ID : 2
Format : AC-3
Format/Info : Audio Coding 3
Mode extension : CM (complete main)
Codec ID : A_AC3
Duration : 1h 39mn
Bit rate mode : Constant
Bit rate : 192 Kbps
Channel(s) : 1 channel
Channel positions : Front: C
Sampling rate : 48.0 KHz
Bit depth : 16 bits
Compression mode : Lossy
Stream size : 136 MiB (2%)
Language : Russian
Default : Yes
Forced : No
Audio #2
ID : 3
Format : AC-3
Format/Info : Audio Coding 3
Mode extension : CM (complete main)
Codec ID : A_AC3
Duration : 1h 39mn
Bit rate mode : Constant
Bit rate : 640 Kbps
Channel(s) : 6 channels
Channel positions : Front: L C R, Side: L R, LFE
Sampling rate : 48.0 KHz
Bit depth : 16 bits
Compression mode : Lossy
Stream size : 454 MiB (6%)
Language : Spanish
Default : No
Forced : No
Audio #3
ID : 4
Format : AC-3
Format/Info : Audio Coding 3
Mode extension : CM (complete main)
Codec ID : A_AC3
Duration : 1h 39mn
Bit rate mode : Constant
Bit rate : 128 Kbps
Channel(s) : 2 channels
Channel positions : Front: L R
Sampling rate : 48.0 KHz
Bit depth : 16 bits
Compression mode : Lossy
Stream size : 90.8 MiB (1%)
Title : Commentary
Language : English
Default : No
Forced : No
Text
ID : 5
Format : UTF-8
Codec ID : S_TEXT/UTF8
Codec ID/Info : UTF-8 Plain Text
Language : English
Default : No
Forced : No
Menu
00:00:00.000 : en:1. Tristana and Saturna
00:06:50.660 : en:2. Don Lope, Grand Caballero
00:13:40.486 : en:3. The Bells
00:24:57.663 : en:4. The Kiss of Death
00:36:02.327 : en:5. The Artist and the Model
00:45:08.205 : en:6. Unfaithful or Free
00:55:12.476 : en:7. Parental Rights
01:08:45.246 : en:8. The Homecoming
01:19:49.785 : en:9. A Change in the Weather
01:26:36.483 : en:10. Wedding Night
01:37:06.070 : en:11. End Credits

Скриншоты

EbP vs Source
Other forum [Profile] [PM]
Display posts from previous:    
Reply to topic

The time now is: Today 10:33

All times are GMT + 3 Hours



You cannot post new topics in this forum
You cannot reply to topics in this forum
You cannot edit your posts in this forum
You cannot delete your posts in this forum
You cannot vote in polls in this forum
You cannot attach files in this forum
You cannot download files in this forum