Today is a free download without charge Download

Рок-фестиваль "Восточный вал - 3", Луганск [2013, Rock, HDCamRip 1080p]

Reply to topic
 
Author
Message

Omen ®

Longevity: 8 years 3 months

Posts: 181087

Торрент-статистика

Post 09-Apr-2013 05:32

[Quote]

Фестиваль "Восточный вал - 3", Луганск
Жанр: Rock
Продолжительность: 3:28:01
Год выпуска: 2013
Описание: Межрегиональный Фестиваль Рок и Метал Музыки "Восточный Вал-3"
29 марта клуб "Colosseum" (г. Луганск, ул. Возрождения, 11-б)
1. Fire Within
2. Severe Side
3. Zона Молчания
4. Берег Неба
5. Две Жизни
6. Игла
7. Ричи Колючий
Качество: HDCamRip 1080p
Контейнер: MP4
Видео кодек: H.264
Аудио кодек: AAC
Видео: H.264 1920x1080 10,8 Mb/s 29.97 fps
Аудио: AAC 48 000 Гц 160 Кбит/с, стерео

Отчёт MediaInfo / BDInfo

I:\Восточный Вал 3\Fire_Within_001 .mp4 General Complete name : I:\Восточный Вал 3\Fire_Within_001 .mp4 Format : MPEG-4 Format profile : Base Media / Version 2 Codec ID : mp42 File size : 318 MiB Duration : 4mn 2s Overall bit rate : 11.0 Mbps Encoded date : UTC 2013-04-05 15:21:51 Tagged date : UTC 2013-04-05 15:21:51 Video #1 ID : 1 Format : AVC Format/Info : Advanced Video Codec Format profile : Main@L4.2 Format settings, CABAC : Yes Format settings, ReFrames : 3 frames Codec ID : avc1 Codec ID/Info : Advanced Video Coding Duration : 4mn 2s Bit rate mode : Variable Bit rate : 10.8 Mbps Width : 1 920 pixels Height : 1 080 pixels Display aspect ratio : 16:9 Frame rate mode : Constant Frame rate : 29.970 fps Standard : NTSC Resolution : 24 bits Colorimetry : 4:2:0 Scan type : Progressive Bits/(Pixel*Frame) : 0.174 Stream size : 313 MiB (99%) Language : English Encoded date : UTC 2013-04-05 15:21:51 Tagged date : UTC 2013-04-05 15:21:51 Audio #2 ID : 2 Format : AAC Format/Info : Advanced Audio Codec Format version : Version 4 Format profile : LC Format settings, SBR : No Codec ID : 40 Duration : 4mn 2s Bit rate mode : Variable Bit rate : 157 Kbps Maximum bit rate : 211 Kbps Channel(s) : 2 channels Channel positions : L R Sampling rate : 48.0 KHz Resolution : 16 bits Stream size : 4.55 MiB (1%) Language : English Encoded date : UTC 2013-04-05 15:21:51 Tagged date : UTC 2013-04-05 15:21:51

Скриншоты

Other forum [Profile] [PM]
Display posts from previous:    
Reply to topic

The time now is: Today 10:34

All times are GMT + 3 Hours



You cannot post new topics in this forum
You cannot reply to topics in this forum
You cannot edit your posts in this forum
You cannot delete your posts in this forum
You cannot vote in polls in this forum
You cannot attach files in this forum
You cannot download files in this forum