Today is a free download without charge Download

Тайны следствия 13 / Сезон: 13 / Серии: 01 из 08 (Рената Грицкова) [2013, Детектив, HDTV 1080i]

Reply to topic
 
Author
Message

Omen ®

Longevity: 9 years

Posts: 181086

Торрент-статистика

Post 09-Apr-2013 01:27

[Quote]

Тайны следствия 13
Год выпуска: 2013
Производство: "Форвард-Фильм"
Жанр: Детектив
Продолжительность: 00:45:00
Субтитры: Отсутствуют
Режиссёр: Рената Грицкова
В ролях: Анна Ковальчук, Вячеслав Захаров, Игорь Николаев, Александр Новиков, Игорь Григорьев, Мирослав Малич, Злата Ильченко, Юлия Яковлева, Андрей Шарков, Олег Алмазов, Дмитрий Поднозов, Ольга Павловец и другие.
Описание: Под руководством Ковина Швецова, наконец, получает ту степень необходимой свободы, о которой так долго мечтала, пока начальственное кресло занимал её давний недоброжелатель Филонов. Оценив преимущества нового положения, Маша примиряется с тем, что её собственные достоинства как руководителя опять не были оценены "наверху", и с головой окунается в дела, поток которых не иссякает ни на минуту. Убийства и прочие преступления, оказавшиеся в поле её зрения, полностью поглощают внимание Швецовой, но даже за пределами стен рабочего кабинета ей теперь не найти былого покоя: Луганский отправляется в длительную командировку, а значит, Маша вновь не будет находить себе места от волнения за любимого супруга...
Сэмпл: http://multi-up.com/852244
Доп. информация: Релиз -

Рип чистый. Без посторонних надписей. Выкладывается как есть.
Качество: HDTV 1080i
Контейнер: TS
Видео кодек: AVC
Аудио кодек: AC3
Видео: 1920x1080 (16:9) 25.000 fps 7 852 Kbps, 0.151 bit/pixel
Аудио: MPEG Audio 48000Hz stereo 192 Кбит/сек

Скриншоты


MI

GeneralID : 1 (0x1)Complete name : J:\ВЫКЛАДКА\HDTV\Сериалы\Тайны следствия. Сезон 13 (2013, Детектив, HDTV) (MYDIMKA)\01 серия.tsFormat : MPEG-TSFile size : 2.59 GiBDuration : 43mn 59sOverall bit rate mode : VariableOverall bit rate : 8 441 Kbps
VideoID : 2911 (0xB5F)Menu ID : 1 (0x1)Format : AVCFormat/Info : Advanced Video CodecFormat profile : [email protected] settings, CABAC : YesFormat settings, ReFrames : 3 framesCodec ID : 27Duration : 43mn 59sBit rate : 7 830 KbpsWidth : 1 920 pixelsHeight : 1 080 pixelsDisplay aspect ratio : 16:9Frame rate : 25.000 fpsColor space : YUVChroma subsampling : 4:2:0Bit depth : 8 bitsScan type : MBAFFBits/(Pixel*Frame) : 0.151Stream size : 2.41 GiB (93%)
AudioID : 2912 (0xB60)Menu ID : 1 (0x1)Format : MPEG AudioFormat version : Version 1Format profile : Layer 2Mode : Joint stereoMode extension : Intensity Stereo + MS StereoCodec ID : 3Duration : 43mn 59sBit rate mode : ConstantBit rate : 192 KbpsChannel(s) : 2 channelsSampling rate : 48.0 KHzCompression mode : LossyStream size : 60.4 MiB (2%)Language : Russian

Внимание! Раздача ведётся путём добавления новых выпусков

Внимание! Раздача ведётся путём добавления новых выпусков; при каждом добавлении создётся новый торрент. Чтобы начать докачку нового выпуска, пользователям необходимо сделать следующее:
(1) остановить скачивание,
(2) удалить старый торрент у себя из клиента (старые выпуски удалять не надо),
(3) скачать новый торрент и запустить его у себя в клиенте вместо старого, при этом указать клиенту путь в старую папку куда и должно происходить скачивание новых выпусков.
Ваш клиент при этом должен произвести хеширование (проверку) старой папки (если не производит сам - помогите ему сделать это), и будет докачивать только те выпуски которых у вас ещё нет. Старые выпуски при этом не удаляются, а продолжают раздаваться!
Eсли вы уже удалили старые выпуски, то предотвратить повторную закачку старых выпусков можно, отжав галочку в соответсвующих местах при запуске нового торрента. По возможности, желательно не удалять старые выпуски как можно дольше чтобы релизёр не столько продолжал раздавать старые выпуски, а смог сконцентрироваться на новых.
Other forum [Profile] [PM]
Similar theme
Forum Topic Author Torrent Replies Last Post
./templates/default/images/folder_dl.gif Отечественные cериалы Тайный город / Сезон: 1 / Серии: 1-8 из 8 (Александр Мохов) [2014 г., фэнтези,, DVDRip] Omen
1 | 0

0 | 1115

6

2014-09-30 11:00
Omen Latest
./templates/default/images/folder_dl.gif Приключения и квесты Secrets of the Dark: The Flower of Shadow Collector\'s Edition / Тайны Тьмы: Цветок Теней. Коллекционное издание [P] [RUS / ENG] (2014) Omen
1 | 0

0 | 2218

23

2015-06-11 12:04
Omen Latest
Display posts from previous:    
Reply to topic

The time now is: Today 17:28

All times are GMT + 3 Hours



You cannot post new topics in this forum
You cannot reply to topics in this forum
You cannot edit your posts in this forum
You cannot delete your posts in this forum
You cannot vote in polls in this forum
You cannot attach files in this forum
You cannot download files in this forum