Today is a free download without charge Download

Выхожу тебя искать-2 / Сезон 2 / Серии: 1- из 12 ( Сергей Бобров (II)) [2013, Мелодрама, DVB]

Reply to topic
 
Author
Message

Omen ®

Longevity: 9 years 1 month

Posts: 181086

Торрент-статистика

Post 09-Apr-2013 01:27

[Quote]

Выхожу тебя искать-2
Год выпуска: 2013
Производство: RWS
Жанр: Мелодрама
Продолжительность: ~0:52:00 серия
Субтитры: Украинские (вшитые)
Режиссёр: Сергей Бобров (II)
В ролях: Ольга Арнтгольц, Константин Соловьёв, Николай Иванов (III), Наташа Швец (II), Даниил Кокин, Алексей Лунёв, Максим Туранцев, Татьяна Косач-Брындина, Дмитрий Ендальцев, Ирина Бразговка, Жанна Эппле, Эрик Дик, Сергей Шеховцов, Елена Старостина (II), Александр Зельский, Надежда Евтехова, Марина Петренко, Владимир Жарков, Лилия Разакова, Дмитрий Мазуров
Описание: Прошло почти четыре года. Братья Демировы работают всё в том же отделе "Р". Михаил, похоже, остепенился. У него длительные - двухлетние - отношения с девушкой. Живут под одной крышей, строят планы на будущее, все идет к свадьбе. В семье у Дениса тоже всё замечательно. Единственное, что омрачает жизнь - отсутствие детей. После очередного безрезультатного курса лечения, Ольга решается на усыновление. Денис на словах тоже "за".Рита вынуждена обратиться за помощью к Демировым - её приемный отец, доктор Высоцкий, уехал в Москву в командировку, и не вернулся. Рита пробует самостоятельно искать его по горячим следам, но в конце концов приходит в отдел "Р" к Демировым за помощью. Когда становится очевидно, что следствие будет долгим, Рита принимает предложение вернуться в отдел на работу, и заниматься поисками отца в свободное от основной работы время. Но Рита не рассказывает братьям всю правду – три года назад она родила от Дениса дочь…

Качество: DVB
Формат: MPEG
Видео кодек: MPEG2
Аудио кодек: MPEG1
Видео: MPEG2 Video 768х576 @ 704x576 (4:3) 25.00fps ~2980 Kbps (0.32 bit/pixel)
Аудио: MPEG Audio 48000Hz 2 channels 192 Кбит/сек
Сторонней рекламы нет!

MediaInfo

ОбщееПолное имя : D:\Выхожу тебя искать 2 DVB\Выхожу тебя искать 2_01_серия_DVB_by_Серый1779.mpgФормат : MPEG-PSРазмер файла : 1,16 ГбайтПродолжительность : 51 м.Общий поток : 3237 Кбит/сек
ВидеоИдентификатор : 224 (0xE0)Формат : MPEG VideoВерсия формата : Version 2Профиль формата : [email protected]Параметр BVOP формата : ДаПараметр матрицы формата : По умолчаниюПараметры GOP формата : M=3, N=30Продолжительность : 51 м.Вид битрейта : ПеременныйБитрейт : 2980 Кбит/секНоминальный битрейт : 15,0 Мбит/секШирина : 704 пикс.Высота : 576 пикс.Соотношение сторон : 4:3Частота кадров : 25,000 кадр/секСтандарт вещания : PALЦветовое пространство : YUVПодвыборка цветности : 4:2:0Битовая глубина : 8 битТип развёртки : ЧересстрочнаяПорядок развёртки : Верхнее поле первоеМетод сжатия : С потерямиБит/(Пиксели*Кадры) : 0.294Размер потока : 1,07 Гбайт (92%)
АудиоИдентификатор : 192 (0xC0)Формат : MPEG AudioВерсия формата : Version 1Профиль формата : Layer 2Продолжительность : 51 м.Вид битрейта : ПостоянныйБитрейт : 192 Кбит/секКаналы : 2 каналаЧастота : 48,0 КГцМетод сжатия : С потерямиРазмер потока : 70,5 Мбайт (6%)

Внимание ! Раздача ведётся путём добавления новых серий

Внимание! Раздача ведётся путём добавления новых серий; при каждом добавлении создётся новый торрент. Чтобы начать докачку новой серии, пользователям необходимо сделать следующее:
(1) остановить скачивание,
(2) удалить старый торрент у себя из клиента (старые серии удалять не надо),
(3) скачать новый торрент и запустить его у себя в клиенте вместо старого, при этом указать клиенту путь в старую папку куда и должно происходить скачивание новых серий.
Ваш клиент при этом должен произвести хеширование (проверку) старой папки (если не производит сам - помогите ему сделать это), и будет докачивать только те серии которых у вас ещё нет. Старые серии при этом не удаляются, а продолжают раздаваться!
Eсли вы уже удалили старые серии, то предотвратить повторную закачку старых серий можно, отжав галочку в соответсвующих местах при запуске нового торрента. По возможности, желательно не удалять старые серии как можно дольше чтобы релизёр не столько продолжал раздавать старые серии, а смог сконцентрироваться на новых.
ВНИМАНИЕ! ТОРРЕНТ ПЕРЕЗАЛИТ! ДОБАВЛЕНА 2-ая - 3-ая СЕРИИ!

Скриншоты

Other forum [Profile] [PM]
Display posts from previous:    
Reply to topic

The time now is: Today 00:18

All times are GMT + 3 Hours



You cannot post new topics in this forum
You cannot reply to topics in this forum
You cannot edit your posts in this forum
You cannot delete your posts in this forum
You cannot vote in polls in this forum
You cannot attach files in this forum
You cannot download files in this forum