Today is a free download without charge Download

Мой парень – псих / Silver Linings Playbook (Дэвид О. Расселл / David O. Russell) [2012, США, драма, мелодрама, комедия, BDRemux 1080p] MVO (R5) + VO (Zamez) + Original Eng + Sub (Rus, Eng)

Reply to topic
 
Author
Message

Omen ®

Longevity: 8 years 5 months

Posts: 181087

Торрент-статистика

Post 09-Apr-2013 01:27

[Quote]

Мой парень – псих / Silver Linings Playbook
«На каждого психа найдётся своя чокнутая»
- Страна: Канада, Ирландия
Студии: The Weinstein Company LLC
Жанр: драма, мелодрама, комедия
Год выпуска: 2012
Продолжительность: 02:02:05
Перевод:
  • Профессиональный (многоголосый, закадровый) (R5)
  • Одноголосый закадровый (zamez)
Cубтитры: русские, английские, английские (SDH), английские (SDH-COLORED)
Оригинальная аудиодорожка: английский-Режиссер: Дэвид О. Расселл / David O. Russell
В ролях: Брэдли Купер, Дженнифер Лоуренс, Роберт Де Ниро, Джеки Уивер, Крис Такер, Анупам Кхер, Джон Ортиз, Ши Уигхэм, Джулия Стайлз, Пол Херман-Описание: Бывший школьный учитель Пэт, проведя в психиатрической больнице восемь месяцев, возвращается в родительский дом. Он одержим мыслью помириться с бывшей супругой, к которой не имеет права приближаться по решению суда. Но знакомство с эксцентричной девушкой Тиффани зажигает в Пэте луч надежды...
- -Тип релиза: BDRemux 1080p
Контейнер: MKV
Видео: MPEG-4 AVC Video / 28.9 Mbps / 1080p / 23,976 fps / 16:9 / High Profile 4.1
Аудио #1: Russian: 48 kHz, AC3, 3/2 (L,C,R,l,r) + LFE ch, ~448.00 kbps avg - [MVO, R5]
Аудио #2: Russian: 48 kHz, AC3, 2/0 (L,R), ~192.00 kbps avg - [VO zamez]
Аудио #3: English: DTS-HD Master Audio 5.1 / (48 kHz / 3224 kbps / 24-bit) (DTS Core: 5.1 / 48 kHz / 1509 kbps / 24-bit) - [Original]
Формат субтитров: softsub (SRT)
Чаптеры: Сохранены оригинальные чаптеры с Blu-Ray
-
Цитата:
  • За русские субтитры thx to Skazhutin
  • За остальные thx to HDClub
-
-

MediaInfo

Код:
Format                                   : Matroska
Format version                           : Version 2
File size                                : 27.1 GiB
Duration                                 : 2h 2mn
Overall bit rate mode                    : Variable
Overall bit rate                         : 31.7 Mbps
Movie name                               : Arifis
Encoded date                             : UTC 2013-04-02 12:27:45
Writing application                      : mkvmerge v5.2.1 ('A Far Off Place') built on Jan  2 2012 23:21:10
Writing library                          : libebml v1.2.3 + libmatroska v1.3.0
Video
ID                                       : 1
Format                                   : AVC
Format/Info                              : Advanced Video Codec
Format profile                           : [email protected]
Format settings, CABAC                   : Yes
Format settings, ReFrames                : 4 frames
Codec ID                                 : V_MPEG4/ISO/AVC
Duration                                 : 2h 2mn
Bit rate mode                            : Variable
Maximum bit rate                         : 33.0 Mbps
Width                                    : 1 920 pixels
Height                                   : 1 080 pixels
Display aspect ratio                     : 16:9
Frame rate mode                          : Constant
Frame rate                               : 23.976 fps
Color space                              : YUV
Chroma subsampling                       : 4:2:0
Bit depth                                : 8 bits
Scan type                                : Progressive
Default                                  : Yes
Forced                                   : No
Audio #1
ID                                       : 2
Format                                   : AC-3
Format/Info                              : Audio Coding 3
Mode extension                           : CM (complete main)
Format settings, Endianness              : Big
Codec ID                                 : A_AC3
Duration                                 : 2h 2mn
Bit rate mode                            : Constant
Bit rate                                 : 448 Kbps
Channel(s)                               : 6 channels
Channel positions                        : Front: L C R, Side: L R, LFE
Sampling rate                            : 48.0 KHz
Bit depth                                : 16 bits
Compression mode                         : Lossy
Stream size                              : 391 MiB (1%)
Title                                    : AC3 5.1 @ 448 kbps - MVO, R5
Language                                 : Russian
Default                                  : Yes
Forced                                   : No
Audio #2
ID                                       : 3
Format                                   : DTS
Format/Info                              : Digital Theater Systems
Format profile                           : MA / Core
Mode                                     : 16
Format settings, Endianness              : Big
Codec ID                                 : A_DTS
Duration                                 : 2h 2mn
Bit rate mode                            : Variable
Bit rate                                 : Unknown / 1 509 Kbps
Channel(s)                               : 6 channels
Channel positions                        : Front: L C R, Side: L R, LFE
Sampling rate                            : 48.0 KHz
Bit depth                                : 24 bits
Compression mode                         : Lossless / Lossy
Title                                    : DTS-HD MA 5.1 Original @ 3224 kbps
Language                                 : English
Default                                  : No
Forced                                   : No
Audio #3
ID                                       : 4
Format                                   : AC-3
Format/Info                              : Audio Coding 3
Mode extension                           : CM (complete main)
Format settings, Endianness              : Big
Codec ID                                 : A_AC3
Duration                                 : 2h 2mn
Bit rate mode                            : Constant
Bit rate                                 : 192 Kbps
Channel(s)                               : 2 channels
Channel positions                        : Front: L R
Sampling rate                            : 48.0 KHz
Bit depth                                : 16 bits
Compression mode                         : Lossy
Stream size                              : 168 MiB (1%)
Title                                    : АС3 2.0 @ 192 kbps - VO, Zamez
Language                                 : Russian
Default                                  : No
Forced                                   : No
Text #1
ID                                       : 5
Format                                   : UTF-8
Codec ID                                 : S_TEXT/UTF8
Codec ID/Info                            : UTF-8 Plain Text
Title                                    : Full Rus
Language                                 : Russian
Default                                  : No
Forced                                   : No
Text #2
ID                                       : 6
Format                                   : UTF-8
Codec ID                                 : S_TEXT/UTF8
Codec ID/Info                            : UTF-8 Plain Text
Title                                    : Full Eng
Language                                 : English
Default                                  : No
Forced                                   : No
Text #3
ID                                       : 7
Format                                   : UTF-8
Codec ID                                 : S_TEXT/UTF8
Codec ID/Info                            : UTF-8 Plain Text
Title                                    : SDH Eng
Language                                 : English
Default                                  : No
Forced                                   : No
Text #4
ID                                       : 8
Format                                   : UTF-8
Codec ID                                 : S_TEXT/UTF8
Codec ID/Info                            : UTF-8 Plain Text
Title                                    : SDH-COLORED
Language                                 : English
Default                                  : No
Forced                                   : No
Menu
00:00:00.000                             : :Chapter 01
00:10:18.534                             : :Chapter 02
00:21:11.979                             : :Chapter 03
00:29:25.847                             : :Chapter 04
00:35:20.868                             : :Chapter 05
00:52:22.013                             : :Chapter 06
01:03:47.281                             : :Chapter 07
01:13:18.727                             : :Chapter 08
01:21:50.405                             : :Chapter 09
01:36:58.103                             : :Chapter 10
01:43:52.434                             : :Chapter 11
01:56:08.795                             : :Chapter 12
-Звуковые дорожки отдельно:

+

-Перевод: Профессиональный (многоголосый закадровый)
Русский / AC3 / 5.1 / 48 kHz / 448 kbps / 16-bit-Перевод: Одноголосый закадровый Вячеслав zamez
Русский / AC3 / 2.0 / 48 kHz / 192 kbps / 16-bit-Перевод: Отсутствует
English / AC3 / 5.1 / 48 kHz / 640 kbps / 16-bit
English / DTS / 5.1 / 48 kHz / 1536 kbps / 24-bit
English / DTS-HD Master Audio / 5.1 / 48 kHz / 3224 kbps / 24-bit (DTS Core: 5.1 / 48 kHz / 1509 kbps / 24-bit)-
-
Other forum [Profile] [PM]
Display posts from previous:    
Reply to topic

The time now is: Today 10:31

All times are GMT + 3 Hours



You cannot post new topics in this forum
You cannot reply to topics in this forum
You cannot edit your posts in this forum
You cannot delete your posts in this forum
You cannot vote in polls in this forum
You cannot attach files in this forum
You cannot download files in this forum