Today is a free download without charge Download

Горец 4: Конец игры / Highlander: Endgame (Дуглас Арниокоски / Douglas Aarniokoski) [2000, США, боевик, фантастика, BDRemux 1080p] [Продюсерская версия / Producer's Cut] Dub + DVO (TV1000 Action) + Sub Rus, Eng + Original Eng

Reply to topic
 
Author
Message

Omen ®

Longevity: 8 years 5 months

Posts: 181087

Торрент-статистика

Post 09-Apr-2013 01:27

[Quote]

Горец 4: Конец игры / Highlander: Endgame / Продюсерская версия / Producer's Cut
Страна: США
Жанр: боевик, фантастика
Год выпуска: 2000
Продолжительность: 01:40:10
Перевод:
1: Профессиональный (дублированный)
2: Профессиональный (двухголосый закадровый) - TV1000 Action
Cубтитры: русские, английские
Навигация по главам: нет
Режиссер: Дуглас Арниокоски / Douglas Aarniokoski
В ролях: Эдриан Пол, Кристофер Ламберт, Брюс Пэйн, Лиза Барбуша, Донни Ен, Джим Бернс, Питер Уингфилд
Описание: Прошедшие сквозь пространство и время двое бессмертных: Коннор и Дункан Маклауды сталкиваются с общим врагом — Джейкобом Келлом, самым могущественным из оставшихся воинов.
Доп. информация: Ремукс с британского BD. Продюсерская версия длиннее театральной примерно на 12 минут.
За синхронизацию Аудио №1 спасибо lex2085
За Аудио №2 спасибо Mr-Maximus
Сэмпл: http://yadi.sk/d/UevwxEyJ3qTD5
Качество: BDRemux 1080p
Контейнер: MKV
Видео: AVC 1920x1080, (2.35:1), 23,976 fps, 28200 Kbps
Аудио №1: Rus; AC3 5.1; 384 Kbps; 48 kHz; DUB
Аудио №2: Rus; AC3 2.0; 192 Kbps; 48 kHz; DVO TV1000 Action
Аудио №3: Eng; DTS-HD MA 5.1; 1661 Kbps; 48 kHz; Original
Субтитры №1: Rus; (форсированные на непереведенные места в дубляже), SRT
Субтитры №2: Rus; (полные), SRT
Субтитры №3: Eng (SDH); (для слабослышащих), SRT

MediaInfo

General
Unique ID : 201437413763190715536447885300030430324 (0x978B6F4910D5C8A197FC818A28AEDC74)
Complete name : D:\FINAL\Highlander Endgame.mkv
Format : Matroska
Format version : Version 4 / Version 2
File size : 21.7 GiB
Duration : 1h 40mn
Overall bit rate mode : Variable
Overall bit rate : 31.1 Mbps
Encoded date : UTC 2013-04-06 15:23:53
Writing application : mkvmerge v6.1.0 ('Old Devil') built on Mar 2 2013 14:32:37
Writing library : libebml v1.3.0 + libmatroska v1.4.0
Video #1
ID : 1
Format : AVC
Format/Info : Advanced Video Codec
Format profile : [email protected]
Format settings, CABAC : Yes
Format settings, ReFrames : 3 frames
Codec ID : V_MPEG4/ISO/AVC
Duration : 1h 40mn
Bit rate mode : Variable
Bit rate : 28.2 Mbps
Maximum bit rate : 35.0 Mbps
Width : 1 920 pixels
Height : 1 080 pixels
Display aspect ratio : 16:9
Frame rate mode : Constant
Frame rate : 23.976 fps
Standard : NTSC
Color space : YUV
Chroma subsampling : 4:2:0
Bit depth : 8 bits
Scan type : Progressive
Bits/(Pixel*Frame) : 0.567
Stream size : 19.7 GiB (91%)
Default : Yes
Forced : No
Color primaries : BT.709
Transfer characteristics : BT.709
Matrix coefficients : BT.709
Audio #2
ID : 2
Format : AC-3
Format/Info : Audio Coding 3
Mode extension : CM (complete main)
Format settings, Endianness : Big
Codec ID : A_AC3
Duration : 1h 40mn
Bit rate mode : Constant
Bit rate : 384 Kbps
Channel(s) : 6 channels
Channel positions : Front: L C R, Side: L R, LFE
Sampling rate : 48.0 KHz
Bit depth : 16 bits
Compression mode : Lossy
Delay relative to video : 12ms
Stream size : 275 MiB (1%)
Language : Russian
Default : Yes
Forced : No
Audio #3
ID : 3
Format : AC-3
Format/Info : Audio Coding 3
Mode extension : CM (complete main)
Format settings, Endianness : Big
Codec ID : A_AC3
Duration : 1h 40mn
Bit rate mode : Constant
Bit rate : 192 Kbps
Channel(s) : 2 channels
Channel positions : Front: L R
Sampling rate : 48.0 KHz
Bit depth : 16 bits
Compression mode : Lossy
Delay relative to video : 12ms
Stream size : 138 MiB (1%)
Language : Russian
Default : No
Forced : No
Audio #4
ID : 4
Format : DTS
Format/Info : Digital Theater Systems
Format profile : MA / Core
Codec ID : A_DTS
Duration : 1h 40mn
Bit rate mode : Variable
Bit rate : 1 661 Kbps / 755 Kbps
Channel(s) : 6 channels
Channel positions : Front: L C R, Side: L R, LFE
Sampling rate : 48.0 KHz
Bit depth : 24 bits
Compression mode : Lossless / Lossy
Delay relative to video : 1ms
Language : English
Default : No
Forced : No
Text #5
ID : 5
Format : UTF-8
Codec ID : S_TEXT/UTF8
Codec ID/Info : UTF-8 Plain Text
Language : Russian
Default : Yes
Forced : Yes
Text #6
ID : 6
Format : UTF-8
Codec ID : S_TEXT/UTF8
Codec ID/Info : UTF-8 Plain Text
Language : Russian
Default : No
Forced : No
Text #7
ID : 7
Format : UTF-8
Codec ID : S_TEXT/UTF8
Codec ID/Info : UTF-8 Plain Text
Language : English
Default : No
Forced : No

Скриншоты

Other forum [Profile] [PM]
Display posts from previous:    
Reply to topic

The time now is: Today 05:25

All times are GMT + 3 Hours



You cannot post new topics in this forum
You cannot reply to topics in this forum
You cannot edit your posts in this forum
You cannot delete your posts in this forum
You cannot vote in polls in this forum
You cannot attach files in this forum
You cannot download files in this forum