Today is a free download without charge Download

Звездный путь: Фильм / Star Trek: The Motion Picture (1979) [720p] BDRip

Reply to topic
 
Author
Message

UndegraundMen ®

Longevity: 8 years 8 months

Posts: 25145

Торрент-статистика

Post 09-Apr-2013 00:00

[Quote]

Звездный путь: Фильм / Star Trek: The Motion Picture от R.G. Shadoof- Русское название: Звездный путь: Фильм
Оригинальное название: Star Trek: The Motion Picture
Год выпуска: 1979
Производство: США
Жанр: фантастика, боевик, детектив, приключения
Перевод: Многоголосый закадровый (СТС) + Одноголосый закадровый (С. Визгунов) + Оригинал
Субтитры: русские, английские-Релиз группы: R.G. Shadoof
Автор рипа : What You Gonna Do ?
-Режиссер: Роберт Уайз
Актеры: Уильям Шетнер, Леонард Нимой, ДеФорест Келли, Джеймс Дуэн, Джордж Такей, Маджел Бэррет, Уолтер Кениг, Нишелль Николс, Персис Хамбатта, Стивен Коллинз- -Описание фильма: Из глубин космоса, через Клингонский сектор к Земле приближается неопознанный объект просто гигантских размеров с неясными, но, возможно, враждебными намерениями, называющий себя «Виджер»; и Энтерпрайз оказывается единственным кораблем, способным успеть вовремя добраться до этого объекта для его исследования и ликвидации потенциальной опасности для Земли.
Это важнейшее задание поручается адмиралу Звездного Флота Джеймсу Т. Кирку, который получает в свое командование корабль USS Enterprise NCC1701 и всю свою старую команду. Итак, их путешествие начинается...
-Исходник: Звездный путь: Фильм / Star Trek: The Motion Picture (1979) 1080p BD-Remux
Продолжительность: 02:12:00
Качество видео: BDRip 720p
Видеокодек: x264
Битрейт видео: ~2671 kbps
Размер кадра: 1280x544
Аудио #1: Русский: 48 kHz, AC3, 3/2 (L,C,R,l,r) + LFE ch, ~448.00 kbps avg |Многоголосый закадровый, СТС|
Аудио #2: Русский: 48 kHz, AC3, 2/0 (L,R) ch, ~192.00 kbps avg |Многоголосый закадровый, СТС (VHS)|
Аудио #3: Русский: 48 kHz, DTS 5.1, ~1509.00 kbps avg |Одноголосый закадровый, С. Визгунов|
Аудио #4: Английсий: 48 kHz, DTS 5.1, ~1509.00 kbps avg
Аудио #5: Английсий: 48 kHz, AC3, 2/0 (L,R) ch, ~224.00 kbps avg |Commentary with Michael & Denise Okuda, Judith & Garfield Reeves-Stevens, and Daren Dochterman|
-

Log

Код:
---[NoImage] x264 [info]: frame I:1522  Avg QP:14.63  size: 91468
---[NoImage] x264 [info]: frame P:36811 Avg QP:15.91  size: 35440
---[NoImage] x264 [info]: frame B:151561 Avg QP:18.53  size:  8766
---[NoImage] x264 [info]: consecutive B-frames:  1.3%  0.8%  4.4% 16.0% 22.1% 39.5%  8.1%  3.5%  1.8%  2.6%
---[NoImage] x264 [info]: mb I  I16..4:  6.8% 75.5% 17.8%
---[NoImage] x264 [info]: mb P  I16..4:  0.5%  7.3%  0.6%  P16..4: 29.4% 36.7% 16.3%  0.0%  0.0%    skip: 9.2%
---[NoImage] x264 [info]: mb B  I16..4:  0.1%  0.7%  0.1%  B16..8: 29.2% 18.0%  3.1%  direct: 5.2%  skip:43.7%  L0:40.3% L1:44.9% BI:14.8%
---[NoImage] x264 [info]: 8x8 transform intra:83.8% inter:57.0%
---[NoImage] x264 [info]: coded y,uvDC,uvAC intra: 88.6% 94.2% 91.8% inter: 16.9% 23.4% 15.5%
---[NoImage] x264 [info]: i16 v,h,dc,p: 54% 11% 12% 22%
---[NoImage] x264 [info]: i8 v,h,dc,ddl,ddr,vr,hd,vl,hu:  8%  8%  8% 10% 14% 12% 14% 12% 15%
---[NoImage] x264 [info]: i4 v,h,dc,ddl,ddr,vr,hd,vl,hu: 11%  9% 14%  8% 13% 11% 12%  9% 13%
---[NoImage] x264 [info]: i8c dc,h,v,p: 56% 16% 12% 16%
---[NoImage] x264 [info]: Weighted P-Frames: Y:7.7% UV:4.3%
---[NoImage] x264 [info]: ref P L0: 44.2%  8.6% 19.9%  6.5%  6.4%  4.3%  4.6%  2.4%  2.8%  0.4%  0.0%
---[NoImage] x264 [info]: ref B L0: 79.9% 10.8%  3.7%  2.0%  1.4%  1.3%  0.7%  0.3%
---[NoImage] x264 [info]: ref B L1: 94.0%  6.0%
---[NoImage] x264 [info]: kb/s:2800.37

MediaInfo

Код:
Общее
Уникальный идентификатор                 : 210638116987144239003063239558717925536 (0x9E776CFA3F9A469CA1E2E88EFEAE68A0)
Полное имя                               : C:\Users\iCrab\Desktop\Star Trek Collection\Star.Trek.The.Motion.Picture.1979.720p.BluRay.3xRus.Eng.R.G.Shadoof-THXNH.mkv
Формат                                   : Matroska
Версия формата                           : Version 2
Размер файла                             : 6,16 Гбайт
Продолжительность                        : 2 ч. 12 м.
Общий поток                              : 6686 Кбит/сек
Название фильма                          : Звездный путь: Фильм / Star Trek: The Motion Picture (1979)
Дата кодирования                         : UTC 2013-04-05 17:36:59
Программа кодирования                    : mkvmerge v4.0.0 ('The Stars were mine') сборка от Jun  6 2010 16:18:42
Библиотека кодирования                   : libebml v1.0.0 + libmatroska v1.0.0
Видео
Идентификатор                            : 1
Формат                                   : AVC
Формат/Информация                        : Advanced Video Codec
Профиль формата                          : [url=mailto:[email protected]][email protected][/url]
Параметр CABAC формата                   : Да
Параметр ReFrames формата                : 9 кадров
Идентификатор кодека                     : V_MPEG4/ISO/AVC
Продолжительность                        : 2 ч. 12 м.
Битрейт                                  : 2671 Кбит/сек
Ширина                                   : 1280 пикселей
Высота                                   : 544 пикселя
Соотношение сторон                       : 2,35:1
Режим частоты кадров                     : Постоянный
Частота кадров                           : 23,976 кадра/сек
Цветовое пространство                    : YUV
Субдискретизация насыщенности            : 4:2:0
Битовая глубина                          : 8 бит
Тип развёртки                            : Прогрессивная
Бит/(Пиксели*Кадры)                      : 0.160
Размер потока                            : 2,46 Гбайт (40%)
Заголовок                                : R.G. Shadoof by THXNH
Библиотека кодирования                   : x264 core 130 r2273 b3065e6
Настройки программы                      : cabac=1 / ref=9 / deblock=1:-3:-2 / analyse=0x3:0x113 / me=umh / subme=11 / psy=1 / psy_rd=1.02:0.00 / mixed_ref=1 / me_range=48 / chroma_me=1 / trellis=2 / 8x8dct=1 / cqm=0 / deadzone=21,11 / fast_pskip=0 / chroma_qp_offset=-4 / threads=6 / lookahead_threads=1 / sliced_threads=0 / nr=0 / decimate=1 / interlaced=0 / bluray_compat=0 / constrained_intra=0 / bframes=9 / b_pyramid=2 / b_adapt=2 / b_bias=0 / direct=1 / weightb=1 / open_gop=0 / weightp=2 / keyint=240 / keyint_min=23 / scenecut=40 / intra_refresh=0 / rc_lookahead=60 / rc=crf / mbtree=0 / crf=17.3 / qcomp=0.60 / qpmin=10 / qpmax=69 / qpstep=4 / vbv_maxrate=62500 / vbv_bufsize=50000 / crf_max=0.0 / nal_hrd=none / ip_ratio=1.40 / pb_ratio=1.30 / aq=1:0.95
Язык                                     : English
Default                                  : Нет
Forced                                   : Нет
Аудио #1
Идентификатор                            : 2
Формат                                   : AC-3
Формат/Информация                        : Audio Coding 3
Расширение режима                        : CM (complete main)
Параметр Endianness формата              : Big
Идентификатор кодека                     : A_AC3
Продолжительность                        : 2 ч. 12 м.
Вид битрейта                             : Постоянный
Битрейт                                  : 448 Кбит/сек
Каналы                                   : 6 каналов
Расположение каналов                     : Front: L C R, Side: L R, LFE
Частота                                  : 48,0 КГц
Битовая глубина                          : 16 бит
Метод сжатия                             : С потерями
Размер потока                            : 423 Мбайт (7%)
Заголовок                                : Многоголосый закадровый, СТС
Язык                                     : Russian
Default                                  : Нет
Forced                                   : Нет
Аудио #2
Идентификатор                            : 3
Формат                                   : AC-3
Формат/Информация                        : Audio Coding 3
Профиль формата                          : Dolby Digital
Расширение режима                        : CM (complete main)
Параметр Endianness формата              : Big
Идентификатор кодека                     : A_AC3
Продолжительность                        : 2 ч. 12 м.
Вид битрейта                             : Постоянный
Битрейт                                  : 192 Кбит/сек
Каналы                                   : 2 канала
Расположение каналов                     : Front: L R
Частота                                  : 48,0 КГц
Битовая глубина                          : 16 бит
Метод сжатия                             : С потерями
Размер потока                            : 181 Мбайт (3%)
Заголовок                                : Многоголосый закадровый, СТС (VHS)
Язык                                     : Russian
Default                                  : Нет
Forced                                   : Нет
Аудио #3
Идентификатор                            : 4
Формат                                   : DTS
Формат/Информация                        : Digital Theater Systems
Режим                                    : 16
Параметр Endianness формата              : Big
Идентификатор кодека                     : A_DTS
Продолжительность                        : 2 ч. 12 м.
Вид битрейта                             : Постоянный
Битрейт                                  : 1509 Кбит/сек
Каналы                                   : 6 каналов
Расположение каналов                     : Front: L C R, Side: L R, LFE
Частота                                  : 48,0 КГц
Битовая глубина                          : 24 бит
Метод сжатия                             : С потерями
Размер потока                            : 1,39 Гбайт (23%)
Заголовок                                : Одноголосый закадровый, С.Визгунов
Язык                                     : Russian
Default                                  : Нет
Forced                                   : Нет
Аудио #4
Идентификатор                            : 5
Формат                                   : DTS
Формат/Информация                        : Digital Theater Systems
Режим                                    : 16
Параметр Endianness формата              : Big
Идентификатор кодека                     : A_DTS
Продолжительность                        : 2 ч. 12 м.
Вид битрейта                             : Постоянный
Битрейт                                  : 1509 Кбит/сек
Каналы                                   : 6 каналов
Расположение каналов                     : Front: L C R, Side: L R, LFE
Частота                                  : 48,0 КГц
Битовая глубина                          : 24 бит
Метод сжатия                             : С потерями
Размер потока                            : 1,39 Гбайт (23%)
Заголовок                                : Оригинал
Язык                                     : English
Default                                  : Нет
Forced                                   : Нет
Аудио #5
Идентификатор                            : 6
Формат                                   : AC-3
Формат/Информация                        : Audio Coding 3
Расширение режима                        : CM (complete main)
Параметр Endianness формата              : Big
Идентификатор кодека                     : A_AC3
Продолжительность                        : 2 ч. 12 м.
Вид битрейта                             : Постоянный
Битрейт                                  : 224 Кбит/сек
Каналы                                   : 2 канала
Расположение каналов                     : Front: L R
Частота                                  : 48,0 КГц
Битовая глубина                          : 16 бит
Метод сжатия                             : С потерями
Размер потока                            : 211 Мбайт (3%)
Заголовок                                : Commentary
Язык                                     : English
Default                                  : Нет
Forced                                   : Нет
Текст #1
Идентификатор                            : 7
Формат                                   : UTF-8
Идентификатор кодека                     : S_TEXT/UTF8
Идентификатор кодека/Информация          : UTF-8 Plain Text
Заголовок                                : Субтитры (Русские)
Язык                                     : Russian
Default                                  : Нет
Forced                                   : Нет
Текст #2
Идентификатор                            : 8
Формат                                   : UTF-8
Идентификатор кодека                     : S_TEXT/UTF8
Идентификатор кодека/Информация          : UTF-8 Plain Text
Заголовок                                : Субтитры (оригинал)
Язык                                     : English
Default                                  : Нет
Forced                                   : Нет
- - --
Other forum [Profile] [PM]
Similar theme
Forum Topic Author Torrent Replies Last Post
./templates/default/images/folder_dl.gif Зарубежное кино Изгой-один: Звёздные войны. Истории / Rogue One: A Star Wars Story (Гарет Эдвардс) [2016 г., фантастика, боевик, приключения, BDRip 1080p] DUB | Чистый звук Theseus
1 | 0

0 | 7726

7

2017-03-22 11:05
Theseus Latest
Display posts from previous:    
Reply to topic

The time now is: Today 09:51

All times are GMT + 3 Hours



You cannot post new topics in this forum
You cannot reply to topics in this forum
You cannot edit your posts in this forum
You cannot delete your posts in this forum
You cannot vote in polls in this forum
You cannot attach files in this forum
You cannot download files in this forum