Today is a free download without charge Download

Чужой район - 2 (Серии 1-2 из 24) (2013) SATRip [Обновляемая]

Reply to topic
 
Author
Message

UndegraundMen ®

Longevity: 8 years 9 months

Posts: 25145

Торрент-статистика

Post 09-Apr-2013 00:00

[Quote]

Чужой район - 2 (2013) SATRip [Обновляемая] - Режиссер / Телекомпания: НТВ
Русское название: Чужой район - 2
Год выпуска: 2013
Жанр: Криминал, детектив (сериал)
Производство: «Триикс Медиа» по заказу телекомпании НТВ
Режиссёр: Максим Бриус
Продюсеры: Инесса Юрченко, Сергей Щеглов.
Креативный продюсер: Вадим Карев
Авторы сценария: Андрей Тумаркин, Вадим Карев, Дмитрий Уханев, Виктор Иванов, Марианна Факторович.
В ролях: Денис Рожков, Кирилл Полухин, Игорь Головин, Зоя Буряк, Сергей Колос, Екатерина Проскурина, Юрий Архангельский, Алексей Нилов, Вячеслав Аркунов, Алексей Одинг, Оксана Скакун, Сергей Черапкин, Вадим Лымарь, Александр Стекольников, Сергей Рублёв, Елена Лопаткина, Геннадий Макоев, Дмитрий Белов, Сергей Малюгов, Инна Корнышева, Ринат Муталлапов, Артур Федынко, Павел Гончаров
Описание:
Приказ о переводе Фролова обратно опером в Центральный район уже практически подписан, и вот и зашёл Андрей прогуляться «на районе» да попрощаться с друзьями-товарищами, так и не смог вернуться. Точнее, вернуться-то удалось, а вот быть в нужном для службы состоянии - нет. И как назло комиссия из Москвы с проверкой пожаловала. Поэтому Фролов в центральном районе работать пока не будет, а вернется в Молот до лучших времен. Так Фролов снова оказался в «Чужом районе». Этому очень обрадовался начальник отделения Статюк. Этому не обрадовались Артур и Макаров. И весьма удивился Свистунов.
Продолжительность: Каждая серия ~ 00:45:00
Видеокодек: XVID
Битрейт видео: ~1646 kb/s
Размер кадра: 720 x 400
Качество видео: SATRip
Аудиокодек: MP3, 2ch.
Битрейт аудио: 128 kb/s

Описание серий

1 серия "Самогон": Капитан полиции Андрей Фролов готов вернуться на старое место службы - оперативником в Центральный район. Его напарник участковый Свистунов уговаривает Фролова отметить переход конфискованным самогоном. Выпив этого нектара богов, они сначала угоняют трамвай, а потом устраивают дебош в клубе. По результатам этих подвигов Фролов опять на год возвращается участковым в район "Красный молот", где его ждут и любят.
2 серия "Кража": В городе действует дерзкая банда квартирных воров, ранивших при попытке задержания двух ППС-ников. Смотрящий за районом "Молот" Артур затевает в квартире ремонт и находит по объявлению бригаду "русских непьющих". В его доме появляется приглашенный "архитектор", гарантирующий высшее качество обслуживания. Наутро Артур обнаруживает, что его квартиру "обнесли вчистую"...

Внимание! Раздача ведётся путём добавления новых серий

Внимание! Раздача ведётся путём добавления новых серий; при каждом добавлении создаётся новый торрент.
Чтобы начать докачку новой серии, пользователям необходимо сделать следующее:
1. Остановить скачивание;
2. Удалить старый торрент у себя из клиента (старые серии удалять не надо);
3. Скачать новый торрент и запустить его у себя в клиенте вместо старого, при этом указать клиенту путь в старую папку куда и должно происходить скачивание новых серий. Ваш клиент при этом должен произвести хеширование (проверку) старой папки и будет докачивать только те серии, которых у вас ещё нет. Старые серии при этом не удаляются, а продолжают раздаваться! Eсли вы уже удалили старые серии, то предотвратить повторную закачку старых серий можно, отжав галочку в соответствующих местах при запуске нового торрента.

MediaInfo

Формат : AVI
Формат/Информация : Audio Video Interleave
Размер файла : 572 Мбайт
Продолжительность : 44 м.
Общий поток : 1784 Кбит/сек
Программа кодирования : VirtualDubMod 1.5.10.2 (build 2542/release)
Библиотека кодирования : VirtualDubMod build 2542/release
Видео
Идентификатор : 0
Формат : MPEG-4 Visual
Профиль формата : Advanced [email protected]
Параметр BVOP формата : 2
Параметр QPel формата : Нет
Параметр GMC формата : Без точки перехода
Параметр матрицы формата : Default (H.263)
Режим смешивания : Сжатый битовый поток
Идентификатор кодека : XVID
Идентификатор кодека/Подсказка : XviD
Продолжительность : 44 м.
Битрейт : 1646 Кбит/сек
Ширина : 720 пикселей
Высота : 384 пикселя
Соотношение сторон : 1,875
Частота кадров : 25,000 кадров/сек
Цветовое пространство : YUV
Субдискретизация насыщенности : 4:2:0
Битовая глубина : 8 бит
Тип развёртки : Прогрессивная
Метод сжатия : С потерями
Бит/(Пиксели*Кадры) : 0.238
Размер потока : 528 Мбайт (92%)
Библиотека кодирования : XviD 64
Аудио
Идентификатор : 1
Формат : MPEG Audio
Версия формата : Version 1
Профиль формата : Layer 3
Режим : Joint stereo
Расширение режима : MS Stereo
Идентификатор кодека : 55
Идентификатор кодека/Подсказка : MP3
Продолжительность : 44 м.
Вид битрейта : Постоянный
Битрейт : 128 Кбит/сек
Каналы : 2 канала
Частота : 48,0 КГц
Метод сжатия : С потерями
Задержка видео : 8 мс.
Размер потока : 41,1 Мбайт (7%)
Выравнивание : Разделение по промежуткам
Продолжительность промежутка : 40 мс. (1,00 видеокадр)
Время предзагрузки промежутка : 500 мс.
Скриншоты:                    
Other forum [Profile] [PM]
Display posts from previous:    
Reply to topic

The time now is: Today 05:04

All times are GMT + 3 Hours



You cannot post new topics in this forum
You cannot reply to topics in this forum
You cannot edit your posts in this forum
You cannot delete your posts in this forum
You cannot vote in polls in this forum
You cannot attach files in this forum
You cannot download files in this forum