Today is a free download without charge Download

Реальные пацаны (Сезон №5, серии №1-2) (2013) SATRip [Обновляемая] [H.264]

Reply to topic
 
Author
Message

UndegraundMen ®

Longevity: 8 years 9 months

Posts: 25145

Торрент-статистика

Post 09-Apr-2013 00:00

[Quote]

Реальные пацаны (Сезон №5, серии №1-2) (2013) SATRip [Обновляемая] [H.264] - Режиссер / Телекомпания: ТНТ
Русское название: Реальные пацаны
Год выпуска: 2013
Жанр: Комедия
Режиссёр: Жанна Кадникова
В ролях: Николай Наумов, Антон Богданов, Владимир Селиванов, Станислав Тляшев, Зоя Бербер, Игорь Ознобихин, Марина Федункив, Валентина Мазунина, Алексей Базанов, Армен Бежанян, Мария Шекунова
Описание:
Вот и настал этот долгожданный пятый уже теперь Московский сезон, где их действия уже будут разворачиваться в Москве. И что теперь за сюрпризы приготовит нашим героям столица. Как все помните Колян поехал учится в Москву, прехватив с собой двух друзей, оставив жену и ребенка в Перьми. И вот наступил день, когда Коля обязан ездить в академию и давать туда бумаги. Заботливая супруга вызвала такси – не на метро же ездить грядущему студенту-академику?! И тут героев практически закручивает сюжетным ураганом: у подъезда Коля встречает Антона и Вовку. И дальше вереница случайностей приводит к концу, который желая станет и безрадостным, но несмотря на все вышесказанное не смертельным. Впереди у мальчуганов – новенькая настоящая жизнь... Увы – повадка Коляна косячить и уходить все, за что бы он ни взялся, в новеньком сезоне от юного отца никуда не ушла. А еще страшнее то, что никуда не делся от него балласт в личике 2-ух друзей-неудачников – Вована и Антохи. И ежели без них Колян способен желая бы время от времени чего-нибудь изготовить верно, то с данной парочкой его шансы не накосячить одинаковы нулю. Но не кидать же в беде товарищей юношества в следствии таковых мелочей, как неизменное кидалово, тупёж и подставы? Их одноклассники уже издавна стали людьми: кто ушел в братки, кто разбогател на продаже жвачек, а кто вообщем уехал в Москву и стал ассистентом народного избранника. Лишь у непутевых мальчуганов все по-прежнему… Точнее, было все все еще, покуда в один красивый день Колянов тесть высокий Иваныч не подарил товарищам цельный бизнес! ныне дело за небольшим – не привести этот бизнес к банкротству в движение ближайших же нескольких дней. Для этого мальчуганам будет необходимо старательно похалтурить над собой… В семье Коляна Наумова подрастает малыш – еще в конце прошедшего сезона супруга Лера подарила Николаю долгожданного отпрыска. Сейчас малышу уже цельных полгода! Теперь-то Колян уж буквально возьмется за ум и отыщет себя, так как существовать папой – таковая суровая ответственность… Или на Наумова не повлияет даже она?
Продолжительность: Каждая серия х ~ 00:25:00
Видеокодек: AVC
Битрейт видео: ~1315 kb/s
Размер кадра: 720 x 400
Качество видео: SATRip
Аудиокодек: AC-3, 2ch.
Битрейт аудио: 192 kb/s

MediaInfo

Формат : Matroska
Версия формата : Version 2
Размер файла : 270 Мбайт
Продолжительность : 24 м.
Общий поток : 1537 Кбит/сек
Название фильма : www.BigFANGroup.org
Дата кодирования : UTC 2013-04-08 17:43:18
Программа кодирования : mkvmerge v3.2.0 ('Beginnings') built on Feb 12 2010 16:46:17
Библиотека кодирования : libebml v0.7.9 + libmatroska v0.8.1
TITLE : www.BigFANGroup.org
Видео
Идентификатор : 1
Формат : AVC
Формат/Информация : Advanced Video Codec
Профиль формата : [url=mailto:[email protected]][email protected][/url]
Параметр CABAC формата : Да
Параметр ReFrames формата : 3 кадра
Идентификатор кодека : V_MPEG4/ISO/AVC
Продолжительность : 24 м.
Вид битрейта : Постоянный
Битрейт : 1315 Кбит/сек
Номинальный битрейт : 1400 Кбит/сек / 1400 Кбит/сек
Ширина : 720 пикселей
Высота : 400 пикселей
Соотношение сторон : 16:9
Частота кадров : 25,000 кадров/сек
Стандарт вещания : NTSC
Цветовое пространство : YUV
Субдискретизация насыщенности : 4:2:0
Битовая глубина : 8 бит
Тип развёртки : Прогрессивная
Бит/(Пиксели*Кадры) : 0.183
Размер потока : 231 Мбайт (86%)
Библиотека кодирования : x264 core 114
Настройки программы : cabac=1 / ref=3 / deblock=1:0:0 / analyse=0x3:0x113 / me=hex / subme=7 / psy=1 / psy_rd=1.00:0.00 / mixed_ref=1 / me_range=16 / chroma_me=1 / trellis=1 / 8x8dct=1 / cqm=2 / deadzone=21,11 / fast_pskip=1 / chroma_qp_offset=-2 / threads=3 / sliced_threads=0 / slices=1 / nr=0 / decimate=1 / interlaced=0 / constrained_intra=0 / bframes=3 / b_pyramid=0 / b_adapt=1 / b_bias=0 / direct=1 / weightb=1 / open_gop=0 / weightp=2 / keyint=250 / keyint_min=25 / scenecut=40 / intra_refresh=0 / rc_lookahead=40 / rc=cbr / mbtree=1 / bitrate=1400 / ratetol=1.0 / qcomp=0.60 / qpmin=3 / qpmax=69 / qpstep=4 / vbv_maxrate=1400 / vbv_bufsize=1392 / nal_hrd=cbr / ip_ratio=1.40 / aq=1:1.00
Default : Да
Forced : Нет
Основные цвета : BT.470-6 System B, BT.470-6 System G, BT.601-6 625, BT.1358 625, BT.1700 625 PAL, BT.1700 625 SECAM
Характеристики трансфера : BT.470-6 System B, BT.470-6 System G
Коэффициенты матрицы : BT.470-6 System B, BT.470-6 System G, BT.601-6 625, BT.1358 625, BT.1700 625 PAL, BT.1700 625 SECAM, IEC 61966-2-4 601
Аудио
Идентификатор : 2
Формат : AC-3
Формат/Информация : Audio Coding 3
Расширение режима : CM (complete main)
Идентификатор кодека : A_AC3
Продолжительность : 24 м.
Вид битрейта : Постоянный
Битрейт : 192 Кбит/сек
Каналы : 2 канала
Расположение каналов : Front: L R
Частота : 48,0 КГц
Битовая глубина : 16 бит
Метод сжатия : С потерями
Размер потока : 33,7 Мбайт (12%)
Default : Да
Forced : Нет
Меню
00:24:05.469 : :

Внимание! Раздача ведётся путём добавления новых серий

Внимание! Раздача ведётся путём добавления новых серий; при каждом добавлении создаётся новый торрент.
Чтобы начать докачку новой серии, пользователям необходимо сделать следующее:
1. Остановить скачивание;
2. Удалить старый торрент у себя из клиента (старые серии удалять не надо);
3. Скачать новый торрент и запустить его у себя в клиенте вместо старого, при этом указать клиенту путь в старую папку куда и должно происходить скачивание новых серий. Ваш клиент при этом должен произвести хеширование (проверку) старой папки и будет докачивать только те серии, которых у вас ещё нет. Старые серии при этом не удаляются, а продолжают раздаваться! Eсли вы уже удалили старые серии, то предотвратить повторную закачку старых серий можно, отжав галочку в соответствующих местах при запуске нового торрента.
Скриншоты:                    
Other forum [Profile] [PM]
Display posts from previous:    
Reply to topic

The time now is: Today 05:41

All times are GMT + 3 Hours



You cannot post new topics in this forum
You cannot reply to topics in this forum
You cannot edit your posts in this forum
You cannot delete your posts in this forum
You cannot vote in polls in this forum
You cannot attach files in this forum
You cannot download files in this forum