Today is a free download without charge Download

Чужой район 2 (2013) SATRip [Серии 1-2 из 24] Обновляемая

Reply to topic
 
Author
Message

UndegraundMen ®

Longevity: 8 years 9 months

Posts: 25145

Торрент-статистика

Post 09-Apr-2013 00:00

[Quote]

Чужой район 2 (2013) SATRip [Серия 1 из 24] Обновляемая- Русское название: Чужой район 2
Год выпуска: 2013
Жанр: Детектив, Криминал
Дата российской премьеры: 08.04.2013
Режиссер: Максим Бриус
Актеры: Денис Рожков, Кирилл Полухин, Игорь Головин, Зоя Буряк, Сергей Колос, Екатерина Проскурина, Юрий Архангельский, Алексей Нилов, Вячеслав Аркунов, Алексей Одинг, Оксана Скакун, Сергей Черапкин, Вадим Лымарь, Александр Стекольников, Сергей Рублёв, Елена Лопаткина, Геннадий Макоев, Дмитрий Белов, Сергей Малюгов, Инна Корнышева, Ринат Муталлапов, Артур Федынко, Павел Гончаров
и
Описание фильма:
Приказ о переводе Фролова обратно опером в Центральный район уже практически подписан, и вот и зашёл Андрей прогуляться «на районе» да попрощаться с друзьями-товарищами, так и не смог вернуться. Точнее, вернуться-то удалось, а вот быть в нужном для службы состоянии – нет. И как назло комиссия из Москвы с проверкой пожаловала. Поэтому Фролов в центральном районе работать пока не будет, а вернется в Молот до лучших времен. Так Фролов снова оказался в «Чужом районе». Этому очень обрадовался начальник отделения Статюк. Этому не обрадовались Артур и Макаров. И весьма удивился Свистунов.
Продолжительность: ~00:45
Качество видео: SATRip
Видеокодек: Xvid
Битрейт видео: ~1640 kbps
Размер кадра: 720x384
Аудиокодек: MP3
Битрейт аудио: 128 kbps

MediaInfo

Общее
Полное имя : G:\SERIES\Чужой район 2 (2013) SATRip\Chuzhoy.Rayon.2.(01).2013.SATRip.avi
Формат : AVI
Формат/Информация : Audio Video Interleave
Размер файла : 575 Мбайт
Продолжительность : 45 м.
Общий поток : 1782 Кбит/сек
Библиотека кодирования : VirtualDub build 34807/release
Видео
Идентификатор : 0
Формат : MPEG-4 Visual
Профиль формата : Advanced [email protected]
Параметр BVOP формата : 2
Параметр QPel формата : Нет
Параметр GMC формата : Без точки перехода
Параметр матрицы формата : Default (H.263)
Режим смешивания : Сжатый битовый поток
Идентификатор кодека : XVID
Идентификатор кодека/Подсказка : XviD
Продолжительность : 45 м.
Битрейт : 1644 Кбит/сек
Ширина : 720 пикселей
Высота : 384 пикселя
Соотношение сторон : 1,85:1
Частота кадров : 25,000 кадров/сек
Цветовое пространство : YUV
Субдискретизация насыщенности : 4:2:0
Битовая глубина : 8 бит
Тип развёртки : Прогрессивная
Метод сжатия : С потерями
Бит/(Пиксели*Кадры) : 0.238
Размер потока : 530 Мбайт (92%)
Библиотека кодирования : XviD 64
Аудио
Идентификатор : 1
Формат : MPEG Audio
Версия формата : Version 1
Профиль формата : Layer 3
Режим : Joint stereo
Расширение режима : MS Stereo
Идентификатор кодека : 55
Идентификатор кодека/Подсказка : MP3
Продолжительность : 45 м.
Вид битрейта : Постоянный
Битрейт : 128 Кбит/сек
Каналы : 2 канала
Частота : 48,0 КГц
Метод сжатия : С потерями
Размер потока : 41,3 Мбайт (7%)
Выравнивание : Разделение по промежуткам
Продолжительность промежутка : 40 мс. (1,00 видеокадр)
Время предзагрузки промежутка : 500 мс.
Скриншоты:


Время раздачи: до 10 сидов
Other forum [Profile] [PM]
Display posts from previous:    
Reply to topic

The time now is: Today 05:14

All times are GMT + 3 Hours



You cannot post new topics in this forum
You cannot reply to topics in this forum
You cannot edit your posts in this forum
You cannot delete your posts in this forum
You cannot vote in polls in this forum
You cannot attach files in this forum
You cannot download files in this forum