Today is a free download without charge Download

33 несчастья / Мистер Несчастный Случай / Mr. Accident (Яху Сириос / Yahoo Serious) [2000, Австралия, США, Комедия, HDTV 1080i] MVO (НТВ+) + Original Eng

Reply to topic
 
Author
Message

Omen ®

Longevity: 8 years 5 months

Posts: 181087

Торрент-статистика

Post 08-Apr-2013 17:18

[Quote]

33 несчастья / Мистер Несчастный Случай / Mr. Accident
Страна: Австралия, США
Студия: Goldwyn Films
Жанр: Комедия
Год выпуска: 2000
Продолжительность: 01:25:26
Перевод: Профессиональный (многоголосый закадровый) НТВ+
Cубтитры: нет
Оригинальная аудиодорожка: английский
Режиссер: Яху Сириос / Yahoo Serious
В ролях: Яху Сириос, Хелен Даллимор, Дэвид Филд, Грант Пиро, Жанетт Кронин, Гарри МакДональд, Дэвид Хоуи, Феликс Уильмсон, Пиппа Грандисон
Описание: 33 несчастья преследуют работника птицефабрики, жизнерадостного горемыку Роджера Крампкина. Однажды он знакомится с удивительной девушкой по имени Сандэй Валентайн. Загадочная красотка, одержимая верой в пришельцев из космоса, только что сбежала от своего дружка Дакстона Шевалье. Случайная встреча оборачивается пламенным чувством. Но безмятежному счастью приходит конец: коварный Шевалье проникает на фабрику, ужасные планы интригана ставят под угрозу жизни миллионов невинных людей. Теперь Роджеру Крампкину придется самыми невероятными способами спасать человечество, а заодно и собственную любовь…

Тип релиза: HDTV 1080i
Контейнер: MKV
Видео: AVC 1920x1080 (16:9) 25.000fps Bit rate 5532Kbps
Аудио 1: AC3 48.0KHz 2ch 192 Kbps rus
Аудио 2: AC3 48.0KHz 2ch 128 Kbps eng

MediaInfo

General
Complete name : E:\torrent\Mr. Accident.mkv
Format : Matroska
File size : 3.56 GiB
Duration : 1h 25mn
Overall bit rate : 5 971 Kbps
Encoded date : UTC 2013-04-08 07:30:46
Writing application : mkvmerge v6.1.0 ('Old Devil') built on Mar 2 2013 14:32:37
Writing library : libebml v1.3.0 + libmatroska v1.4.0
Video
ID : 1
Format : AVC
Format/Info : Advanced Video Codec
Format profile : [email protected]
Format settings, CABAC : Yes
Format settings, ReFrames : 3 frames
Format settings, GOP : M=1, N=64
Muxing mode : Container [email protected]
Codec ID : V_MPEG4/ISO/AVC
Duration : 1h 25mn
Bit rate : 5 532 Kbps
Width : 1 920 pixels
Height : 1 080 pixels
Display aspect ratio : 16:9
Frame rate : 50.000 fps
Original frame rate : 25.000 fps
Standard : Component
Color space : YUV
Chroma subsampling : 4:2:0
Bit depth : 8 bits
Scan type : Interlaced
Scan order : Top Field First
Bits/(Pixel*Frame) : 0.053
Stream size : 3.30 GiB (93%)
Color primaries : BT.709-5, BT.1361, IEC 61966-2-4, SMPTE RP177
Transfer characteristics : BT.709-5, BT.1361
Matrix coefficients : BT.709-5, BT.1361, IEC 61966-2-4 709, SMPTE RP177
Audio #1
ID : 2
Format : AC-3
Format/Info : Audio Coding 3
Mode extension : CM (complete main)
Codec ID : A_AC3
Duration : 1h 25mn
Bit rate mode : Constant
Bit rate : 192 Kbps
Channel(s) : 2 channels
Channel positions : Front: L R
Sampling rate : 48.0 KHz
Bit depth : 16 bits
Stream size : 117 MiB (3%)
Audio #2
ID : 3
Format : AC-3
Format/Info : Audio Coding 3
Mode extension : CM (complete main)
Codec ID : A_AC3
Duration : 1h 25mn
Bit rate mode : Constant
Bit rate : 128 Kbps
Channel(s) : 2 channels
Channel positions : Front: L R
Sampling rate : 48.0 KHz
Bit depth : 16 bits
Stream size : 78.2 MiB (2%)

Скриншот с названием фильма

Скриншоты

Other forum [Profile] [PM]
Display posts from previous:    
Reply to topic

The time now is: Today 11:36

All times are GMT + 3 Hours



You cannot post new topics in this forum
You cannot reply to topics in this forum
You cannot edit your posts in this forum
You cannot delete your posts in this forum
You cannot vote in polls in this forum
You cannot attach files in this forum
You cannot download files in this forum