Today is a free download without charge Download

Стервятники / Scavengers ( Трэвис Заривны ) (2013, Фантастика ) BDRip [1080p] [EN]

Reply to topic
 
Author
Message

Витек1 ®

Gender:

Longevity: 8 years 3 months

Posts: 451

Location: Житомир

Торрент-статистика

Post 08-Apr-2013 11:22

[Quote]

Стервятники / Scavengers - Русское название: Стервятники
Оригинальное название: Scavengers
Год выпуска: 2013
Жанр: Фантастика
Описание фильма:
Научно-фантастический фильм про космических искателей «ничейных» товаров, энергии и сокровищ. Когда команда под предводительством Эмерсон находит инопланетный Генератор Хаоса, их ждет неприятная встреча с бывшим партнером — злобным капитаном Джекелем.
Режиссер: Трэвис Заривны
Актеры: Джон Ли Амес, Роурк Критчлоу, Шон Патрик Флэнери, Луиз Линтон, Джереми Лондон, Дж.Дж. Нолан, Тайлер Поэлль, Расселл Ричардсон
Продолжительность: 01:33:27
Перевод: Отсутствует
Язык: Английский

Видеокодек: MPEG-4 AVC/H.264
Битрейт видео: ~8 536 Kbps
Размер кадра: 1920x800
Качество видео: BDRip
Аудиокодек: DTS : 6 channels
Битрейт аудио: 1 510 Kbps
Сэмпл: Ссылка

Screenlist

 

MediaInfo

Scavengers-1080p.mkv
Format : Matroska
Format version : Version 2
File size : 6.56 GiB
Duration : 1h 33mn
Overall bit rate : 10.0 Mbps
Writing application : mkvmerge v4.1.1 ('Bouncin' Back') built on Jul 3 2010 22:54:08
Writing library : libebml v1.0.0 + libmatroska v1.0
Video
ID : 1
Format : AVC
Format/Info : Advanced Video Codec
Format profile : [url=mailto:[email protected]][email protected][/url]
Format settings, CABAC : Yes
Format settings, ReFrames : 5 frames
Codec ID : V_MPEG4/ISO/AVC
Duration : 1h 33mn
Bit rate : 8 536 Kbps
Width : 1 920 pixels
Height : 800 pixels
Display aspect ratio : 2.40:1
Frame rate : 23.976 fps
Color space : YUV
Chroma subsampling : 4:2:0
Bit depth : 8 bits
Scan type : Progressive
Bits/(Pixel*Frame) : 0.232
Stream size : 5.44 GiB (83%)
Writing library : x264 core 130 r2273 b3065e6
Encoding settings : cabac=1 / ref=5 / deblock=1:0:0 / analyse=0x3:0x133 / me=umh / subme=7 / psy=1 / psy_rd=1.00:0.00 / mixed_ref=1 / me_range=16 / chroma_me=1 / trellis=1 / 8x8dct=1 / cqm=0 / deadzone=21,11 / fast_pskip=0 / chroma_qp_offset=-2 / threads=18 / lookahead_threads=3 / sliced_threads=0 / nr=0 / decimate=1 / interlaced=0 / bluray_compat=0 / constrained_intra=0 / bframes=3 / b_pyramid=2 / b_adapt=1 / b_bias=0 / direct=1 / weightb=1 / open_gop=0 / weightp=2 / keyint=240 / keyint_min=23 / scenecut=40 / intra_refresh=0 / rc_lookahead=40 / rc=2pass / mbtree=1 / bitrate=8536 / ratetol=1.0 / qcomp=0.60 / qpmin=10 / qpmax=69 / qpstep=4 / cplxblur=20.0 / qblur=0.5 / ip_ratio=1.40 / aq=1:1.00
Language : English
Default : Yes
Forced : No
Audio
ID : 2
Format : DTS
Format/Info : Digital Theater Systems
Codec ID : A_DTS
Duration : 1h 33mn
Bit rate mode : Constant
Bit rate : 1 510 Kbps
Channel(s) : 6 channels
Channel positions : Front: L C R, Side: L R, LFE
Sampling rate : 48.0 KHz
Bit depth : 16 bits
Compression mode : Lossy
Stream size : 1 009 MiB (15%)
Language : English
Default : Yes
Forced : No
Menu
00:00:00.000 : en:00:00:00.000
00:09:21.227 : en:00:09:21.227
00:17:40.392 : en:00:17:40.392
00:24:23.545 : en:00:24:23.545
00:30:41.422 : en:00:30:41.422
00:37:09.727 : en:00:37:09.727
00:48:46.423 : en:00:48:46.423
00:56:11.618 : en:00:56:11.618
01:05:18.706 : en:01:05:18.706
01:13:52.052 : en:01:13:52.052
01:23:25.625 : en:01:23:25.625
01:31:07.086 : en:01:31:07.086
Скриншоты:
   
   

_________________
Скачал сам, дай скачать другому!!!Не забудь сказать -
Other forum [Profile] [PM]

Dracula

Longevity: 7 years 5 months

Posts: 11216

Торрент-статистика

Post 02-Jan-2014 15:52 (after 8 months 24 days)

Топик был перенесен из форума Новинки (DVD, HD Video) в форум Зарубежное кино (HD Video)


kogesan
 
Display posts from previous:    
Reply to topic

The time now is: Today 03:54

All times are GMT + 3 Hours



You cannot post new topics in this forum
You cannot reply to topics in this forum
You cannot edit your posts in this forum
You cannot delete your posts in this forum
You cannot vote in polls in this forum
You cannot attach files in this forum
You cannot download files in this forum