Today is a free download without charge Download

Стервятники / Scavengers ( Трэвис Заривны ) (2013, Фантастика ) BDRip [720p]

Reply to topic
 
Author
Message

Витек1 ®

Gender:

Longevity: 8 years 3 months

Posts: 451

Location: Житомир

Торрент-статистика

Post 08-Apr-2013 11:15

[Quote]

Стервятники / Scavengers - Русское название: Стервятники
Оригинальное название: Scavengers
Год выпуска: 2013
Производство: США
Жанр: Фантастика
Перевод: Одноголосый закадровый, любительский
Субтитры: Отсутствуют
Дата мировой премьеры: 21 марта 2013
Режиссер: Трэвис Заривны
Продюсер: Тайлер А. Хоуз, Стивен Исток
Актеры: Джон Ли Амес, Роурк Критчлоу, Шон Патрик Флэнери, Луиз Линтон, Джереми Лондон, Дж.Дж. Нолан, Тайлер Поэлль, Расселл Ричардсон
Описание фильма:
Научно-фантастический фильм про космических искателей «ничейных» товаров, энергии и сокровищ. Когда команда под предводительством Эмерсон находит инопланетный Генератор Хаоса, их ждет неприятная встреча с бывшим партнером — злобным капитаном Джекелем. Продолжительность: 01:33:27
Качество видео: BDRip
Видеокодек: MPEG-4 AVC/H.264
Битрейт видео: ~5185 Kbit/s
Размер кадра: 1280 x 536
Aудио #1: AC3, 48,0 КHz, 5.1, 448 Kbit/s - Русский
Aудио #2: DTS, 48,0 КHz, 5.1, 1510 Kbit/s - Aнглийский
Дополнительно: Сохранены оригинальные чапреты как на Blu-Ray

MediaInfo

Общее
Уникальный идентификатор : 186992236313174250360856210126521855306 (0x8CAD650CEABFFB5389503EBFBF4D6D4A)
Полное имя : D:\Торренты\Стервятники.2013.BDRip.720p.mkv
Формат : Matroska
Размер файла : 4,66 Гбайт
Продолжительность : 1 ч. 33 м.
Общий поток : 7142 Кбит/сек
Дата кодирования : UTC 2013-04-07 20:29:52
Программа кодирования : mkvmerge v5.2.0 ('I can't explain')
Библиотека кодирования : libebml v1.2.3 + libmatroska v1.3.0
Видео
Идентификатор : 1
Формат : AVC
Формат/Информация : Advanced Video Codec
Профиль формата : [url=mailto:[email protected]][email protected][/url]
Параметр CABAC формата : Да
Параметр ReFrames формата : 5 кадров
Параметры GOP формата : M=4, N=28
Идентификатор кодека : V_MPEG4/ISO/AVC
Продолжительность : 1 ч. 33 м.
Битрейт : 5185 Кбит/сек
Ширина : 1280 пикс.
Высота : 536 пикс.
Соотношение сторон : 2,35:1
Частота кадров : 23,976 кадр/сек
Цветовое пространство : YUV
Подвыборка цветности : 4:2:0
Битовая глубина : 8 бит
Тип развёртки : Прогрессивная
Бит/(Пиксели*Кадры) : 0.315
Размер потока : 3,29 Гбайт (71%)
Заголовок : Scavengers.2013.720p.BluRay.x264-VETO
Библиотека кодирования : x264 core 130 r2273 b3065e6
Настройки программы : cabac=1 / ref=5 / deblock=1:0:0 / analyse=0x3:0x133 / me=umh / subme=7 / psy=1 / psy_rd=1.00:0.00 / mixed_ref=1 / me_range=16 / chroma_me=1 / trellis=1 / 8x8dct=1 / cqm=0 / deadzone=21,11 / fast_pskip=0 / chroma_qp_offset=-2 / threads=18 / lookahead_threads=3 / sliced_threads=0 / nr=0 / decimate=1 / interlaced=0 / bluray_compat=0 / constrained_intra=0 / bframes=3 / b_pyramid=2 / b_adapt=1 / b_bias=0 / direct=1 / weightb=1 / open_gop=0 / weightp=2 / keyint=240 / keyint_min=23 / scenecut=40 / intra_refresh=0 / rc_lookahead=40 / rc=2pass / mbtree=1 / bitrate=5185 / ratetol=1.0 / qcomp=0.60 / qpmin=10 / qpmax=69 / qpstep=4 / cplxblur=20.0 / qblur=0.5 / ip_ratio=1.40 / aq=1:1.00
Язык : English
Аудио #1
Идентификатор : 2
Формат : AC-3
Формат/Информация : Audio Coding 3
Расширение режима : CM (complete main)
Идентификатор кодека : A_AC3
Продолжительность : 1 ч. 33 м.
Вид битрейта : Постоянный
Битрейт : 448 Кбит/сек
Каналы : 6 каналов
Расположение каналов : Front: L C R, Side: L R, LFE
Частота : 48,0 КГц
Битовая глубина : 16 бит
Метод сжатия : С потерями
Размер потока : 299 Мбайт (6%)
Заголовок : DD 5.1 @ 448 kbps - L1
Язык : Russian
Аудио #2
Идентификатор : 3
Формат : DTS
Формат/Информация : Digital Theater Systems
Идентификатор кодека : A_DTS
Продолжительность : 1 ч. 33 м.
Вид битрейта : Постоянный
Битрейт : 1510 Кбит/сек
Каналы : 6 каналов
Расположение каналов : Front: L C R, Side: L R, LFE
Частота : 48,0 КГц
Битовая глубина : 16 бит
Метод сжатия : С потерями
Размер потока : 1009 Мбайт (21%)
Заголовок : DTS 5.1 @ 1536 kbps
Язык : English
Меню
00:00:00.000 : en:00:00:00.000
00:09:21.227 : en:00:09:21.227
00:17:40.392 : en:00:17:40.392
00:24:23.545 : en:00:24:23.545
00:30:41.422 : en:00:30:41.422
00:37:09.727 : en:00:37:09.727
00:48:46.423 : en:00:48:46.423
00:56:11.618 : en:00:56:11.618
01:05:18.706 : en:01:05:18.706
01:13:52.052 : en:01:13:52.052
01:23:25.625 : en:01:23:25.625
01:31:07.086 : en:01:31:07.086
Скриншоты:
     
     

_________________
Скачал сам, дай скачать другому!!!Не забудь сказать -
Other forum [Profile] [PM]

Dracula

Longevity: 7 years 6 months

Posts: 11221

Торрент-статистика

Post 02-Jan-2014 15:52 (after 8 months 24 days)

Топик был перенесен из форума Новинки (DVD, HD Video) в форум Зарубежное кино (HD Video)


kogesan
 
Display posts from previous:    
Reply to topic

The time now is: Today 05:09

All times are GMT + 3 Hours



You cannot post new topics in this forum
You cannot reply to topics in this forum
You cannot edit your posts in this forum
You cannot delete your posts in this forum
You cannot vote in polls in this forum
You cannot attach files in this forum
You cannot download files in this forum