Today is a free download without charge Download

Славные парни / Goodfellas (Мартин Скорсезе) [1990 г., триллер, драма, криминал, биография, BDRip720p]

Reply to topic
 
Author
Message

Delia ®

Gender:

Longevity: 9 years 6 months

Posts: 1821

Торрент-статистика

Post 14-Jul-2011 11:33

[Quote]

Славные парни Goodfellas Год выпуска: 1990
Страна: США
Жанр: триллер, драма, криминал, биография
Продолжительность: 02:25:27
Перевод: Профессиональный (полное дублирование)
Режиссер: Мартин Скорсезе
Продюссер: Ирвин Уинклер, Барбара Де Фина, Брюс С. Пастин
Сценарий: Николас Пиледжи, Мартин Скорсезе
Бюджет: $25 000 000
Премьера в мире: 12 сентября 1990
В ролях: Роберт Де Ниро, Рэй Лиотта, Джо Пеши, Лоррейн Бракко, Пол Сорвино, Фрэнк Сиверо, Тони Дарроу, Майк Старр, Фрэнк Винсент, Чак Лоу
Описание: Молодой парень Генри Хилл (Рэй Лиотта) с детства обожает гангстеров, и его единственная мечта — стать таким же, как они: ездить в быстрых машинах, носить дорогие костюмы и пользоваться всеобщим уважением, переходящим в почитание. Чтобы осуществить свою мечту, Генри начинает работать «мальчиком на побегушках» у одного из местных бандитов.
Со временем, помимо рядовых мафиози, на Генри обращает внимание и местный авторитет, Пол Сисеро . Он знакомит юного Хилла с местной легендой — талантливым вором и бандитом Джимми Конвэем , а тот в свою очередь сводит Генри с другим своим протеже, молодым Томми ДеВито . Казалось бы, на пути Генри нет никаких преград...
Славные парни» (англ. Goodfellas) — кинофильм, обладатель пяти наград Британской Киноакадемии (включая лучший фильм), приза МКФ и премии «Оскар», которая была вручена Джо Пеши за лучшую роль второго плана. Визитная карточка фильма — культовая фраза, которой открывается картина: «As far back as I can remember, I’ve always wanted to be a gangster.» — Henry Hill, Brooklyn, N.Y. 1955. (Сколько себя помню, я всегда хотел быть гангстером).
Качество: BDRip720p
Формат: MKV
Видео кодек: H.264
Аудио кодек: AC3
Видео: English, 3919 Кбит/сек, 1280*720 (16:9), в 23,976 кадр/сек, AVC ([email protected])
Аудио#: Russian, 384 Кбит/сек, 48,0 КГц, 16 бит, 6 канала(ов), AC-3
Аудио#:Russian,224 Кбит/сек, 48,0 КГц, 16 бит, 2 канала(ов), AC-3 |[Профессиональный двухголосый (Гланц и Королева): народ.ру]
Аудио#:Russian, 466 Мбайт, 2 ч. 25 м.448 Кбит/сек, 48,0 КГц, 16 бит, 6 канала(ов), AC-3 | [Авторский одноголосый (А. Михалев)]
Аудио#:Russian,448 Кбит/сек, 48,0 КГц, 16 бит, 6 канала(ов), AC-3 | [Дублированный (Варус-видео)]
Аудио#:English,640 Кбит/сек, 48,0 КГц, 16 бит, 6 канала(ов), AC-3 | [оригинал]
Субтитры:Russian, English - VobSub ( присутствует ненормативная лексика)

MI:

Общее
Уникальный идентификатор : 198304982546392495829485516353229989725 (0x95302680A9826810BE609C82651EA75D)
Полное имя : F:\торрент\Goodfellas (1990)BDRip720p .mkv
Формат : Matroska
Размер файла : 4,38 Гбайт
Продолжительность : 2 ч. 25 м.
Общий поток : 4313 Кбит/сек
Дата кодирования : UTC 2011-07-14 06:29:53
Программа кодирования : mkvmerge v4.8.0 ('I Got The...') built on May 24 2011 03:12:58
Библиотека кодирования : libebml v1.2.0 + libmatroska v1.1.0
Видео
Идентификатор : 1
Формат : AVC
Формат/Информация : Advanced Video Codec
Профиль формата : [email protected]
Параметр CABAC формата : Да
Параметр ReFrames формата : 9 кадры
Параметры GOP формата : M=1, N=32
Идентификатор кодека : V_MPEG4/ISO/AVC
Продолжительность : 2 ч. 25 м.
Битрейт : 3919 Кбит/сек
Ширина : 1280 пикс.
Высота : 720 пикс.
Соотношение сторон : 16:9
Частота кадров : 23,976 кадр/сек
Цветовое пространство : YUV
Подвыборка цветности : 4:2:0
Битовая глубина : 8 бит
Тип развёртки : Прогрессивная
Бит/(Пиксели*Кадры) : 0.177
Размер потока : 3,90 Гбайт (89%)
Библиотека кодирования : x264 core 116 r2019 9cc407d
Настройки программы : cabac=1 / ref=9 / deblock=1:-3:-3 / analyse=0x3:0x133 / me=umh / subme=8 / psy=1 / psy_rd=1.00:0.15 / mixed_ref=1 / me_range=32 / chroma_me=1 / trellis=2 / 8x8dct=1 / cqm=0 / deadzone=21,11 / fast_pskip=0 / chroma_qp_offset=-3 / threads=6 / sliced_threads=0 / nr=0 / decimate=1 / interlaced=0 / bluray_compat=0 / constrained_intra=0 / bframes=8 / b_pyramid=2 / b_adapt=2 / b_bias=0 / direct=3 / weightb=1 / open_gop=0 / weightp=2 / keyint=250 / keyint_min=24 / scenecut=40 / intra_refresh=0 / rc_lookahead=60 / rc=2pass / mbtree=1 / bitrate=3919 / ratetol=1.0 / qcomp=0.60 / qpmin=0 / qpmax=69 / qpstep=4 / cplxblur=20.0 / qblur=0.5 / vbv_maxrate=50000 / vbv_bufsize=50000 / nal_hrd=none / ip_ratio=1.40 / aq=1:1.00
Язык : English
Аудио
Идентификатор : 2
Формат : AC-3
Формат/Информация : Audio Coding 3
Расширение режима : CM (complete main)
Идентификатор кодека : A_AC3
Продолжительность : 2 ч. 25 м.
Вид битрейта : Постоянный
Битрейт : 384 Кбит/сек
Канал(ы) : 6 канала(ов)
Расположение каналов : Front: L C R, Side: L R, LFE
Частота : 48,0 КГц
Битовая глубина : 16 бит
Метод сжатия : С потерями
Задержка видео : 3 мс.
Размер потока : 400 Мбайт (9%)
Язык : Russian
Текст #1
Идентификатор : 3
Формат : VobSub
Режим смешивания : zlib
Идентификатор кодека : S_VOBSUB
Идентификатор кодека/Информация : The same subtitle format used on DVDs
Язык : Russian
Текст #2
Идентификатор : 4
Формат : VobSub
Режим смешивания : zlib
Идентификатор кодека : S_VOBSUB
Идентификатор кодека/Информация : The same subtitle format used on DVDs
Язык : English
Меню
00:00:00.000 : en:00:00:00.000
00:02:42.913 : en:00:02:42.913
00:05:49.432 : en:00:05:49.432
00:07:36.539 : en:00:07:36.539
00:09:08.465 : en:00:09:08.465
00:10:48.731 : en:00:10:48.731
00:13:28.558 : en:00:13:28.558
00:15:01.818 : en:00:15:01.818
00:16:38.581 : en:00:16:38.581
00:19:43.099 : en:00:19:43.099
00:23:46.342 : en:00:23:46.342
00:28:39.635 : en:00:28:39.635
00:31:32.641 : en:00:31:32.641
00:34:36.157 : en:00:34:36.157
00:35:43.391 : en:00:35:43.391
00:37:21.156 : en:00:37:21.156
00:41:27.568 : en:00:41:27.568
00:44:26.414 : en:00:44:26.414
00:48:56.016 : en:00:48:56.016
00:52:04.371 : en:00:52:04.371
00:57:07.341 : en:00:57:07.341
01:01:10.250 : en:01:01:10.250
01:03:46.239 : en:01:03:46.239
01:06:23.229 : en:01:06:23.229
01:07:43.476 : en:01:07:43.476
01:12:32.265 : en:01:12:32.265
01:15:43.289 : en:01:15:43.289
01:18:39.298 : en:01:18:39.298
01:20:02.715 : en:01:20:02.715
01:23:05.397 : en:01:23:05.397
01:25:37.716 : en:01:25:37.716
01:28:14.372 : en:01:28:14.372
01:30:29.841 : en:01:30:29.841
01:33:20.845 : en:01:33:20.845
01:37:52.450 : en:01:37:52.450
01:40:01.746 : en:01:40:01.746
01:42:51.415 : en:01:42:51.415
01:46:34.138 : en:01:46:34.138
01:49:14.298 : en:01:49:14.298
01:53:21.545 : en:01:53:21.545
02:03:56.179 : en:02:03:56.179
02:07:18.714 : en:02:07:18.714
02:09:29.679 : en:02:09:29.679
02:12:00.830 : en:02:12:00.830
02:15:02.011 : en:02:15:02.011
02:18:47.402 : en:02:18:47.402
02:20:32.841 : en:02:20:32.841

Скриншоты

               

_________________
Человек – это канат, натянутый между животным и сверхчеловеком, – канат над пропастью.
В человеке ценно то, что он мост, а не цель. Фридрих Ницше


Last edited by Delia on 2011-08-26 17:52; edited 2 times in total
Other forum [Profile] [PM]
Display posts from previous:    
Reply to topic

The time now is: Today 08:50

All times are GMT + 3 Hours



You cannot post new topics in this forum
You cannot reply to topics in this forum
You cannot edit your posts in this forum
You cannot delete your posts in this forum
You cannot vote in polls in this forum
You cannot attach files in this forum
You cannot download files in this forum