Today is a free download without charge Download

Законы привлекательности / Laws of Attraction (Питер Хауит / Peter Howitt) [2004, Ирландия, Великобритания, Германия, комедия, мелодрама, HDTVRip 720p] Dub + Original Eng + Sub Rus, Eng

Reply to topic
 
Author
Message

Omen ®

Longevity: 8 years 5 months

Posts: 181087

Торрент-статистика

Post 08-Apr-2013 09:04

[Quote]

Законы привлекательности / Laws of Attraction
Страна: Ирландия, Великобритания, Германия
Жанр: комедия, мелодрама
Год выпуска: 2004
Продолжительность: 01:30:01
Перевод: Профессиональный (дублированный)
Cубтитры: русские, английские
Оригинальная аудиодорожка: английский
Режиссер: Питер Хауит / Peter Howitt
В ролях: Пирс Броснан, Джулианна Мур, Майкл Шин, Паркер Поузи, Фрэнсис Фишер, Нора Данн, Хэзер Энн Нёрнберг, Джонни Майерс, Майк Дойл, Аллан Хьюстон
Описание: Два успешных адвоката по бракоразводным делам, Дэниел Рафферти и Одри Вудс, представляя своих клиентов, нередко оказываются по разные стороны баррикад. Но встречи в зале судебных заседаний и за его пределами приводят к закономерному итогу — их ждет новое свидание в суде, но на этот раз им придется встать на место своих клиентов…
Сэмпл: http://yadi.sk/d/QGAmeKu83sPoC
Тип релиза: HDTVRip 720p
Контейнер: MKV
Видео: AVC, 1280x534, 2.40:1, 4893 kbps, 23.976 fps
Аудио: RUS, AC3, 5.1, 48 kHz, 16 bit, 448 kbps
Аудио 2: ENG, AC3, 5.1, 48 kHz, 16 bit, 448 kbps
Формат субтитров: softsub (SRT)

MediaInfo

General
Unique ID : 198494621687400586683561506365097545517 (0x9554AC6F221982539CE242F700CE8F2D)
Complete name : Законы привлекательности [2004] 720p.mkv
Format : Matroska
Format version : Version 4 / Version 2
File size : 3.71 GiB
Duration : 1h 30mn
Overall bit rate : 5 906 Kbps
Encoded date : UTC 2013-04-07 23:28:02
Writing application : mkvmerge v6.0.0 ('Coming Up For Air') built on Jan 20 2013 09:52:00
Writing library : libebml v1.3.0 + libmatroska v1.4.0
Video
ID : 1
Format : AVC
Format/Info : Advanced Video Codec
Format profile : [email protected]
Format settings, CABAC : Yes
Format settings, ReFrames : 12 frames
Codec ID : V_MPEG4/ISO/AVC
Duration : 1h 30mn
Bit rate : 4 893 Kbps
Width : 1 280 pixels
Height : 534 pixels
Display aspect ratio : 2.40:1
Frame rate mode : Constant
Frame rate : 23.976 fps
Color space : YUV
Chroma subsampling : 4:2:0
Bit depth : 8 bits
Scan type : Progressive
Bits/(Pixel*Frame) : 0.299
Stream size : 3.08 GiB (83%)
Language : English
Default : Yes
Forced : No
Audio #1
ID : 2
Format : AC-3
Format/Info : Audio Coding 3
Mode extension : CM (complete main)
Format settings, Endianness : Big
Codec ID : A_AC3
Duration : 1h 30mn
Bit rate mode : Constant
Bit rate : 448 Kbps
Channel(s) : 6 channels
Channel positions : Front: L C R, Side: L R, LFE
Sampling rate : 48.0 KHz
Bit depth : 16 bits
Compression mode : Lossy
Stream size : 288 MiB (8%)
Language : Russian
Default : Yes
Forced : No
Audio #2
ID : 3
Format : AC-3
Format/Info : Audio Coding 3
Mode extension : CM (complete main)
Format settings, Endianness : Big
Codec ID : A_AC3
Duration : 1h 30mn
Bit rate mode : Constant
Bit rate : 448 Kbps
Channel(s) : 6 channels
Channel positions : Front: L C R, Side: L R, LFE
Sampling rate : 48.0 KHz
Bit depth : 16 bits
Compression mode : Lossy
Stream size : 288 MiB (8%)
Language : English
Default : No
Forced : No
Text #1
ID : 4
Format : UTF-8
Codec ID : S_TEXT/UTF8
Codec ID/Info : UTF-8 Plain Text
Language : Russian
Default : No
Forced : No
Text #2
ID : 5
Format : UTF-8
Codec ID : S_TEXT/UTF8
Codec ID/Info : UTF-8 Plain Text
Language : English
Default : No
Forced : No
Menu
00:00:00.000 : en:Chapter 1
00:05:19.000 : en:Chapter 2
00:14:27.000 : en:Chapter 3
00:21:33.000 : en:Chapter 4
00:29:56.000 : en:Chapter 5
00:36:55.000 : en:Chapter 6
00:45:17.000 : en:Chapter 7
00:52:40.000 : en:Chapter 8
00:59:09.000 : en:Chapter 9
01:06:39.000 : en:Chapter 10
01:15:11.000 : en:Chapter 11
01:22:16.000 : en:Chapter 12
01:25:33.000 : en:Chapter 13

Скриншот c названием фильма

Other forum [Profile] [PM]
Display posts from previous:    
Reply to topic

The time now is: Today 00:58

All times are GMT + 3 Hours



You cannot post new topics in this forum
You cannot reply to topics in this forum
You cannot edit your posts in this forum
You cannot delete your posts in this forum
You cannot vote in polls in this forum
You cannot attach files in this forum
You cannot download files in this forum