Today is a free download without charge Download

Точка взрыва [4 серии из 4] (2013) SATRip

Reply to topic
 
Author
Message

UndegraundMen ®

Longevity: 8 years 9 months

Posts: 25145

Торрент-статистика

Post 08-Apr-2013 00:01

[Quote]

Точка взрыва [4 серии из 4] (2013) SATRip- Русское название: Точка взрыва
Выпущено: Россия
Год выпуска: 2013
Жанр: Мелодрама Боевик
Перевод: Оригинал (Русский)
Субтитры: Отсутствуют

Дата российской премьеры: 7 апреля 2013
Режиссер: Мария Рождественская, Сергей Белошников
Актеры: Дмитрий Певцов, Ирина Линдт, Евгения Гладий, Максим Пинскер, Александр Денисов (III), Елена Любимова
Описание фильма:
В наше время, когда самые кровопролитные войны прошли, осталось еще много взрывчатых устройств, мин и бомб. Их обезвреживанием занимается команда саперов. Главный герой Денис один из них. Ему нравится работа сапера и он достиг совершенства в обезвреживании опасных устройств. Однажды его группу направили, чтобы обезвредить взрывчатку, которую заложила банда. Эти бандиты уже взорвали несколько торговых центров в Санкт-Петербурге и нельзя допустить, чтобы еще пострадали люди.
Продолжительность: 4 х ~ 00:44:46 серия
Качество видео: SATRip
Видеокодек: Xvid
Битрейт видео: ~1424 Kbit/s
Размер кадра: 720 x 400
Аудиокодек: MP3, 2.0
Битрейт аудио: 128 Kbit/s

MediaInfo

Общее
Полное имя : D:\Торренты\Точка взрыва. 2013. SATRip\Точка взрыва.01.avi
Формат : AVI
Формат/Информация : Audio Video Interleave
Размер файла : 500 Мбайт
Продолжительность : 44 м.
Общий поток : 1562 Кбит/сек
Программа кодирования : VirtualDubMod 1.5.10.2 (build 2540/release)
Библиотека кодирования : VirtualDubMod build 2540/release
Видео
Идентификатор : 0
Формат : MPEG-4 Visual
Профиль формата : Advanced [email protected]
Параметр BVOP формата : 2
Параметр QPel формата : Нет
Параметр GMC формата : Без точки перехода
Параметр матрицы формата : Default (MPEG)
Идентификатор кодека : XVID
Идентификатор кодека/Подсказка : XviD
Продолжительность : 44 м.
Битрейт : 1424 Кбит/сек
Ширина : 720 пикс.
Высота : 400 пикс.
Соотношение сторон : 16:9
Частота кадров : 25,000 кадр/сек
Цветовое пространство : YUV
Подвыборка цветности : 4:2:0
Битовая глубина : 8 бит
Тип развёртки : Прогрессивная
Метод сжатия : С потерями
Бит/(Пиксели*Кадры) : 0.198
Размер потока : 456 Мбайт (91%)
Библиотека кодирования : XviD 65
Аудио
Идентификатор : 1
Формат : MPEG Audio
Версия формата : Version 1
Профиль формата : Layer 3
Режим : Joint stereo
Расширение режима : MS Stereo
Идентификатор кодека : 55
Идентификатор кодека/Подсказка : MP3
Продолжительность : 44 м.
Вид битрейта : Постоянный
Битрейт : 128 Кбит/сек
Каналы : 2 канала
Частота : 48,0 КГц
Метод сжатия : С потерями
Размер потока : 41,0 Мбайт (8%)
Выравнивание : Соединение по промежуткам
Продолжительность промежутка : 40 мс. (1,00 видеокадр)
Время предзагрузки промежутка : 504 ms
Скриншоты:
           
Время раздачи: 24/7 по возможности
Other forum [Profile] [PM]
Display posts from previous:    
Reply to topic

The time now is: Today 17:52

All times are GMT + 3 Hours



You cannot post new topics in this forum
You cannot reply to topics in this forum
You cannot edit your posts in this forum
You cannot delete your posts in this forum
You cannot vote in polls in this forum
You cannot attach files in this forum
You cannot download files in this forum