Today is a free download without charge Download

Красное солнце / Red Sun (1971) BDRip

Reply to topic
 
Author
Message

UndegraundMen ®

Longevity: 8 years 8 months

Posts: 25145

Торрент-статистика

Post 08-Apr-2013 00:01

[Quote]

Красное солнце / Red Sun (1971) BDRip-
Русское название: Красное солнце
Оригинальное название: Red Sun
Год выпуска: 1971
Жанр: Вестерн, Приключения, Боевик
Описание фильма:
70-е годы 19-го века. Ограблен поезд и вместе с золотом похищен самурайский меч, предназначенный в подарок президенту. Самурай отправляется на поиски меча вместе с одним из грабителей, у которого свои причины искать обидчика. Тот зажал его долю награбленного, а самого грабителя чуть не убил.
Режиссер: Теренс Янг / Terence Young
Актеры: Чарльз Бронсон, Тосиро Мифунэ, Урсула Андресс, Ален Делон, Капюсин Бернабе, Барта Барри, Гуидо Лоллобриджида, Энтони Доусон, Джанни Медичи, Жорж Ликан
Продолжительность: 01:54:29
Перевод: Профессиональный (многоголосый закадровый) SomeWax, Авторский (одноголосый закадровый) Гаврилов, Авторский (одноголосый закадровый) Михалев

_____________________
Видеокодек: Xvid
Битрейт видео: ~2135 Kbps
Размер кадра: 720x384
Качество видео: BDRip
Аудио 1: AC3, 2 ch, 192.00 kbps.............Профессиональный (многоголосый закадровый) SomeWax
Аудио 2: AC3, 2 ch, 192.00 kbps.............Авторский (одноголосый закадровый) Гаврилов
Аудио 3: AC3, 2 ch, 192.00 kbps.............Авторский (одноголосый закадровый) Михалев
-

MI

General
Complete name : Red_Sun_1971.BDRip.avi
Format : AVI
Format/Info : Audio Video Interleave
Format profile : OpenDML
File size : 2.19 GiB
Duration : 1h 54mn
Overall bit rate : 2 735 Kbps
Writing application : VirtualDubMod 1.5.10.2 (build 2542/release)
Writing library : VirtualDubMod build 2542/release
Video
ID : 0
Format : MPEG-4 Visual
Format profile : Advanced [email protected]
Format settings, BVOP : 1
Format settings, QPel : No
Format settings, GMC : No warppoints
Format settings, Matrix : Custom
Codec ID : XVID
Codec ID/Hint : XviD
Duration : 1h 54mn
Bit rate : 2 135 Kbps
Width : 720 pixels
Height : 384 pixels
Display aspect ratio : 1.85:1
Frame rate : 23.976 fps
Color space : YUV
Chroma subsampling : 4:2:0
Bit depth : 8 bits
Scan type : Progressive
Compression mode : Lossy
Bits/(Pixel*Frame) : 0.322
Stream size : 1.71 GiB (78%)
Writing library : XviD 65
Audio #1
ID : 1
Format : AC-3
Format/Info : Audio Coding 3
Format profile : Dolby Digital
Mode extension : CM (complete main)
Format settings, Endianness : Big
Codec ID : 2000
Duration : 1h 54mn
Bit rate mode : Constant
Bit rate : 192 Kbps
Channel(s) : 2 channels
Channel positions : Front: L R
Sampling rate : 48.0 KHz
Bit depth : 16 bits
Compression mode : Lossy
Stream size : 157 MiB (7%)
Alignment : Split accross interleaves
Interleave, duration : 42 ms (1.00 video frame)
Interleave, preload duration : 500 ms
Audio #2
ID : 2
Format : AC-3
Format/Info : Audio Coding 3
Format profile : Dolby Digital
Mode extension : CM (complete main)
Format settings, Endianness : Big
Codec ID : 2000
Duration : 1h 54mn
Bit rate mode : Constant
Bit rate : 192 Kbps
Channel(s) : 2 channels
Channel positions : Front: L R
Sampling rate : 48.0 KHz
Bit depth : 16 bits
Compression mode : Lossy
Stream size : 157 MiB (7%)
Alignment : Split accross interleaves
Interleave, duration : 42 ms (1.00 video frame)
Interleave, preload duration : 500 ms
Audio #3
ID : 3
Format : AC-3
Format/Info : Audio Coding 3
Format profile : Dolby Digital
Mode extension : CM (complete main)
Format settings, Endianness : Big
Codec ID : 2000
Duration : 1h 54mn
Bit rate mode : Constant
Bit rate : 192 Kbps
Channel(s) : 2 channels
Channel positions : Front: L R
Sampling rate : 48.0 KHz
Bit depth : 16 bits
Compression mode : Lossy
Stream size : 157 MiB (7%)
Alignment : Split accross interleaves
Interleave, duration : 42 ms (1.00 video frame)
Interleave, preload duration : 500 ms
-
Other forum [Profile] [PM]
Display posts from previous:    
Reply to topic

The time now is: Today 11:40

All times are GMT + 3 Hours



You cannot post new topics in this forum
You cannot reply to topics in this forum
You cannot edit your posts in this forum
You cannot delete your posts in this forum
You cannot vote in polls in this forum
You cannot attach files in this forum
You cannot download files in this forum