Today is a free download without charge Download

Реальные парни / Stand Up Guys ( Фишер Стивенс ) (2012, Драма, Комедия, Криминал ) DVD5

Reply to topic
 
Author
Message

Витек1 ®

Gender:

Longevity: 8 years 3 months

Posts: 451

Location: Житомир

Торрент-статистика

Post 07-Apr-2013 16:53

[Quote]

Реальные парни / Stand Up Guys - Русское название: Реальные парни
Оригинальное название: Stand Up Guys
Год выпуска: 2012
Производство: США
Жанр: Драма, Комедия, Криминал
Перевод: Дублированный (Лицензия)
Субтитры: Отсутствуют
Режиссер: Фишер Стивенс
Актеры: Аль Пачино, Кристофер Уокен, Алан Аркин, Джулианна Маргулис, Марк Марголис, Люси Панч, Эддисон Тимлин, Ванесса Ферлито, Кэтрин Уинник, Билли Барр
Описание фильма:
История строится вокруг двух уже немолодых преступников, один из которых получил задание убить близкого друга. Столь непростая ситуация требует времени на обдумывание, и киллеры решают вместе с приятелем изрядно побуянить (включая посещение борделя, угон машин и бегство от полиции), прежде чем будет принято окончательное решение.

Дата мировой премьеры: 11 октября 2012
Дата российской премьеры: 31 января 2013, «Top Film Distribution»
Дата выхода DVD релиза: 5 марта 2013, Lizard Cinema Trade
Продолжительность: 01:31:05
Качество видео: DVD5
Видеокодек: MPEG-2
Битрейт видео: ~5514 kbps
Размер кадра: PAL 16:9 ([email protected]х576)
Аудио: AC3, 6 ch, 448 kbps (Дублированный, Русский)
Доп. материалы: Отсутствуют

MediaInfo:

Общее
Полное имя : Realnye.parni.2012.DVD5\VIDEO_TS\VTS_01_1.VOB
Формат : MPEG-PS
Размер файла : 1024 Мбайт
Продолжительность : 23 м.
Режим общего битрейта : Переменный
Общий поток : 6083 Кбит/сек
Видео
Идентификатор : 224 (0xE0)
Формат : MPEG Video
Версия формата : Version 2
Профиль формата : [email protected]
Параметр BVOP формата : Да
Параметр матрицы формата : Выборочная
Продолжительность : 23 м.
Вид битрейта : Переменный
Битрейт : 5514 Кбит/сек
Максимальный битрейт : 8000 Кбит/сек
Ширина : 720 пикселей
Высота : 576 пикселей
Соотношение сторон : 16:9
Частота кадров : 25,000 кадров/сек
Стандарт вещания : PAL
Цветовое пространство : YUV
Субдискретизация насыщенности : 4:2:0
Битовая глубина : 8 бит
Тип развёртки : Чересстрочная
Порядок развёртки : Верхнее поле первое
Метод сжатия : С потерями
Бит/(Пиксели*Кадры) : 0.532
Размер потока : 928 Мбайт (91%)
Аудио
Идентификатор : 189 (0xBD)-128 (0x80)
Формат : AC-3
Формат/Информация : Audio Coding 3
Расширение режима : CM (complete main)
Режим смешивания : DVD-Video
Продолжительность : 23 м.
Вид битрейта : Постоянный
Битрейт : 448 Кбит/сек
Каналы : 6 каналов
Расположение каналов : Front: L C R, Side: L R, LFE
Частота : 48,0 КГц
Битовая глубина : 16 бит
Метод сжатия : С потерями
Размер потока : 75,4 Мбайт (7%)
Меню

DVDInfo:

Title: Realnye.parni.2012.DVD5
Size: 3.63 Gb ( 3 806 262,00 KBytes ) - DVD-5
Enabled regions: 1, 2, 3, 4, 5, 6, 7, 8
VTS_01 :
Play Length: 01:31:05
Video: PAL 16:9 (720x576) VBR, Auto Letterboxed
Audio:
  • Russian (Dolby AC3, 6 ch)
    VTS_02 :
    Play Length: 00:00:08
    Video: PAL 4:3 (720x576) VBR
    VTS_03 :
    Play Length: 00:00:21
    Video: PAL 16:9 (720x576) VBR, Auto Letterboxed
    Audio:
  • English (Dolby AC3, 2 ch)
    VTS_04 :
    Play Length: 00:00:20
    Video: PAL 4:3 (720x576) VBR
    Audio:
  • English (Dolby AC3, 2 ch)
    * Menus Information *
    VIDEO_TS Menu
    Video:
  • NTSC 4:3 (720x480) VBR
  • Auto Pan&Scan, Auto Letterboxed
    Russian Language Unit :
  • Title Menu
    VTS_01 Menu
    Video:
  • PAL 16:9 (720x576) VBR
  • Auto Letterboxed
    Audio:
  • Not specified (Dolby AC3, 2 ch)
    Russian Language Unit :
  • Root Menu
  • Chapter (PTT) Menu
    VTS_02 Menu
    Video:
  • NTSC 4:3 (720x480) VBR
  • Auto Pan&Scan, Auto Letterboxed
    Language Unit :
  • Chapter (PTT) Menu
    VTS_03 Menu
    Video:
  • NTSC 4:3 (720x480) VBR
  • Auto Pan&Scan, Auto Letterboxed
    Language Unit :
  • Chapter (PTT) Menu
    VTS_04 Menu
    Video:
  • NTSC 4:3 (720x480) VBR
  • Auto Pan&Scan, Auto Letterboxed
    Language Unit :
  • Chapter (PTT) Menu

Меню DVD:

     
Скриншоты:
       
       

_________________
Скачал сам, дай скачать другому!!!Не забудь сказать -
Other forum [Profile] [PM]
Display posts from previous:    
Reply to topic

The time now is: Today 02:28

All times are GMT + 3 Hours



You cannot post new topics in this forum
You cannot reply to topics in this forum
You cannot edit your posts in this forum
You cannot delete your posts in this forum
You cannot vote in polls in this forum
You cannot attach files in this forum
You cannot download files in this forum