Today is a free download without charge Download

Спецназ / Сезон: 1-2 / Серии: 1-7 из 7 (Андрей Малюков) [2002-2003, Боевик, DVDRip]

Reply to topic
 
Author
Message

Omen ®

Longevity: 9 years

Posts: 181086

Торрент-статистика

Post 07-Apr-2013 16:39

[Quote]

Спецназ
Год выпуска: 2002-2003
Производство: Кинокомпания "СВАРОГ ФИЛЬМ" по заказу ОРТ
Жанр: Боевик
Продолжительность: 7 x ~ 00:52:18
Режиссёр: Андрей Малюков
В ролях: Александр Балуев (майор Платов или Клим), Алексей Кравченко (капитан Вяземский или Док), Андрей Зибров (ст.прапорщик Шахмаметьев или Шах), Игорь Лифанов (ст. прапорщик Хрусталев или Хруст), Владислав Галкин (ст. лейтенант Урманов или Якут), Александр Носик (Змей), Эвклид Кюрдзидис (Вагиф) ("Сломанная стрела"), Михаил Пореченков (Уолленс) ("Клинок"), Владимир Турчинский (Озорных) ("Засада") и др.
Описание: Главные герои сериала «Спецназ» — бойцы и офицеры армейского спецподразделения ГРУ. Спецназ военной разведки — это элита вооруженных сил. Но страна не знает своих героев в лицо. Их лица и их работа — это государственный секрет. В картине рассказывается о реальных и, в то же время, невероятных событиях из жизни спецназа в Чечне и Санкт-Петербурге. Каждая серия «Спецназа» — новое дело майора Клима Платова и его бойцов. На каждом шагу их ждет новая опасность, новые обстоятельства и новая «горячая точка».
Доп. информация:
релиз -
1-я серия : "Сломанная стрела"
2-я серия : "Засада"
3-я серия : "Клинок"
4-я серия: "Дыхание пророка"
5-я серия: "Взлетная полоса"
6-я серия: "Покушение"
7-я серия: "Послушник"
Сэмпл: http://multi-up.com/851547
Качество: DVDRip
Формат: AVI
Видео кодек: XviD
Аудио кодек: AC3
Видео: 704x432 (1.63:1), 25 fps, XviD build 65 ~1362 kbps avg, 0.18 bit/pixel
Аудио: 48 kHz, AC3 Dolby Digital, 3/2 (L,C,R,l,r) + LFE ch, ~384 kbps

MI

Спецназ.DVDRip-SVAT\Спецназ.01.DVDRip-SVAT.avi
Format : AVI
Format/Info : Audio Video Interleave
File size : 639 MiB
Duration : 50mn 50s
Overall bit rate : 1 757 Kbps
Writing application : VirtualDubMod 1.5.10.3 | www.virtualdub-fr.org || (build 2550/release)
Writing library : VirtualDubMod build 2550/release
Video
ID : 0
Format : MPEG-4 Visual
Format profile : Advanced [email protected]
Format settings, BVOP : 2
Format settings, QPel : No
Format settings, GMC : No warppoints
Format settings, Matrix : Custom
Codec ID : XVID
Codec ID/Hint : XviD
Duration : 50mn 50s
Bit rate : 1 363 Kbps
Width : 704 pixels
Height : 432 pixels
Display aspect ratio : 1.630
Frame rate : 25.000 fps
Color space : YUV
Chroma subsampling : 4:2:0
Bit depth : 8 bits
Scan type : Progressive
Compression mode : Lossy
Bits/(Pixel*Frame) : 0.179
Stream size : 496 MiB (78%)
Writing library : XviD 65
Audio
ID : 1
Format : AC-3
Format/Info : Audio Coding 3
Mode extension : CM (complete main)
Format settings, Endianness : Big
Codec ID : 2000
Duration : 50mn 50s
Bit rate mode : Constant
Bit rate : 384 Kbps
Channel(s) : 6 channels
Channel positions : Front: L C R, Side: L R, LFE
Sampling rate : 48.0 KHz
Bit depth : 16 bits
Compression mode : Lossy
Stream size : 140 MiB (22%)
Alignment : Split accross interleaves
Interleave, duration : 40 ms (1.00 video frame)
Interleave, preload duration : 500 ms

Скриншоты

Other forum [Profile] [PM]
Display posts from previous:    
Reply to topic

The time now is: Today 18:02

All times are GMT + 3 Hours



You cannot post new topics in this forum
You cannot reply to topics in this forum
You cannot edit your posts in this forum
You cannot delete your posts in this forum
You cannot vote in polls in this forum
You cannot attach files in this forum
You cannot download files in this forum