Today is a free download without charge Download

Другой мир / Underworld (Лен Уайзман / Len Wiseman) [2003, фэнтази, боевик, триллер, BDRip 1080p]

Reply to topic
 
Author
Message

Delia ®

Gender:

Longevity: 11 years

Posts: 1821

Торрент-статистика

Post 07-Apr-2013 09:11

[Quote]

-Другой мир
Underworld (фильм)--
Год выпуска: 2003
Страна: США , Германия , Венгрия , Великобритания
Жанр: фильм действия, фантастика
Продолжительность: 02:01:10
Перевод: Профессиональный (дублированный)
Субтитры: Russian (UTF-8),
Режиссер: Лен Уайзмэн / Len Wiseman
Сценарий: Кевин Гриво / Kevin Grevioux, Лен Уайзмэн / Len Wiseman, Дэнни МакБрайд / Danny McBride
Продюсер: Роберт Берначчи / Robert Bernacchi, Кевин Гриво / Kevin Grevioux, Гэри Луккези / Gary Lucchesi
Оператор: Тони Пирс-Робертс / Tony Pierce-Roberts
Композитор: Пол Хэслингер / Paul Haslinger
Художник: Братон Джоунс / Bruton Jones, Кевин Фиппс / Kevin Phipps, Сабба Сторк / Csaba Stork
Монтаж: Мартин Хантер / Martin Hunter

В ролях: Кейт Бекинсейл / Kate Beckinsale (Selene), Скотт Спидман / Scott Speedman (Michael Corvin), Майкл Шин / Michael Sheen (Lucian), Шэйн Бролли / Shane Brolly (Kraven), Билл Найи / Bill Nighy (Viktor), Эрвин Ледер / Erwin Leder (Singe), София Майлс / Sophia Myles (Erika), Робби Ги / Robbie Gee (в титрах: Robby Gee) (Kahn), Вентворт Миллер / Wentworth Miller (Dr. Adam Lockwood), Кевин Гревье / Kevin Grevioux (Raze)
Описание: Прекрасная Селин из племени вампиров-воинов, сильнее любого смертного в десять раз, сражается против своих заклятых врагов - оборотней. И самое ужасное и необыкновенное, что могло произойти, свершилось: Селин полюбила одного из тех, кого следует ненавидеть и уничтожать.

Рейтинг MPAA: Лицам до 17 лет обязательно присутствие взрослого
Рейтинг ВКИП: запрещено для детей
Качество: BDRip
Формат: MKV
Видео кодек: AVC
Аудио кодеk: AC3
Видео: 1920x816 (2.35:1), 23.976 fps, AVC, 8 625 Kbps
Аудио: Аудио #1: AC3, 384 Kbps, 48.0 KHz, 6 ch
Аудио #2: AC3, 384 Kbps, 48.0 KHz, 6 ch


--

МедиаИнфо

Код:
General
Complete name                    : Underworld(2003)1080p.F_HD.mkv
Format                           : Matroska
File size                        : 7.95 GiB
Duration                         : 2h 1mn
Overall bit rate                 : 9 389 Kbps
Encoded date                     : UTC 2013-04-07 05:13:02
Writing application              : mkvmerge v6.0.0 ('Coming Up For Air') built on Jan 20 2013 09:52:00
Writing library                  : libebml v1.3.0 + libmatroska v1.4.0
Video
ID                               : 1
Format                           : AVC
Format/Info                      : Advanced Video Codec
Format profile                   : [email protected]
Format settings, CABAC           : Yes
Format settings, ReFrames        : 4 frames
Muxing mode                      : Container [email protected]
Codec ID                         : V_MPEG4/ISO/AVC
Duration                         : 2h 1mn
Bit rate                         : 8 625 Kbps
Width                            : 1 920 pixels
Height                           : 816 pixels
Display aspect ratio             : 2.35:1
Frame rate                       : 23.976 fps
Color space                      : YUV
Chroma subsampling               : 4:2:0
Bit depth                        : 8 bits
Scan type                        : Progressive
Bits/(Pixel*Frame)               : 0.230
Stream size                      : 7.14 GiB (90%)
Writing library                  : x264 core 130 r2273kMod b3065e6
Encoding settings                : cabac=1 / ref=4 / deblock=1:-3:-3 / analyse=0x3:0x113 / me=umh / subme=11 / psy=1 / fade_compensate=0.00 / psy_rd=1.00:0.05 / mixed_ref=1 / me_range=48 / chroma_me=1 / trellis=2 / 8x8dct=1 / cqm=0 / deadzone=21,11 / fast_pskip=0 / chroma_qp_offset=-3 / threads=6 / lookahead_threads=1 / sliced_threads=0 / nr=0 / decimate=1 / interlaced=0 / bluray_compat=0 / constrained_intra=0 / bframes=9 / b_pyramid=2 / b_adapt=2 / b_bias=0 / direct=3 / weightb=1 / open_gop=0 / weightp=2 / keyint=250 / keyint_min=23 / scenecut=40 / intra_refresh=0 / rc_lookahead=40 / rc=2pass / mbtree=0 / bitrate=8625 / ratetol=1.0 / qcomp=0.70 / qpmin=10 / qpmax=51 / qpstep=4 / cplxblur=20.0 / qblur=0.5 / vbv_maxrate=50000 / vbv_bufsize=62500 / nal_hrd=none / ip_ratio=1.40 / pb_ratio=1.30 / aq=3:0.80
Matrix coefficients              : BT.709-5, BT.1361, IEC 61966-2-4 709, SMPTE RP177
Audio #1
ID                               : 2
Format                           : AC-3
Format/Info                      : Audio Coding 3
Mode extension                   : CM (complete main)
Codec ID                         : A_AC3
Duration                         : 2h 1mn
Bit rate mode                    : Constant
Bit rate                         : 384 Kbps
Channel(s)                       : 6 channels
Channel positions                : Front: L C R, Side: L R, LFE
Sampling rate                    : 48.0 KHz
Bit depth                        : 16 bits
Stream size                      : 333 MiB (4%)
Language                         : Russian
Audio #2
ID                               : 3
Format                           : AC-3
Format/Info                      : Audio Coding 3
Mode extension                   : CM (complete main)
Codec ID                         : A_AC3
Duration                         : 2h 1mn
Bit rate mode                    : Constant
Bit rate                         : 384 Kbps
Channel(s)                       : 6 channels
Channel positions                : Front: L C R, Side: L R, LFE
Sampling rate                    : 48.0 KHz
Bit depth                        : 16 bits
Stream size                      : 333 MiB (4%)
Text #1
ID                               : 4
Format                           : UTF-8
Codec ID                         : S_TEXT/UTF8
Codec ID/Info                    : UTF-8 Plain Text
Language                         : Russian
Text #2
ID                               : 5
Format                           : UTF-8
Codec ID                         : S_TEXT/UTF8
Codec ID/Info                    : UTF-8 Plain Text
Menu
00:00:00.000                     : en:00:00:00.000
00:02:45.039                     : en:00:02:45.039
00:14:27.867                     : en:00:14:27.867
00:24:31.720                     : en:00:24:31.720
00:31:23.756                     : en:00:31:23.756
00:39:44.048                     : en:00:39:44.048
00:43:23.183                     : en:00:43:23.183
00:45:44.575                     : en:00:45:44.575
00:57:32.198                     : en:00:57:32.198
01:09:10.020                     : en:01:09:10.020
01:14:59.328                     : en:01:14:59.328
01:17:05.579                     : en:01:17:05.579
01:23:28.753                     : en:01:23:28.753
01:33:03.953                     : en:01:33:03.953
01:46:26.171                     : en:01:46:26.171
01:49:42.993                     : en:01:49:42.993


Скриншоты

     
     

_________________
Человек – это канат, натянутый между животным и сверхчеловеком, – канат над пропастью.
В человеке ценно то, что он мост, а не цель. Фридрих Ницше
Other forum [Profile] [PM]
Similar theme
Forum Topic Author Torrent Replies Last Post
./templates/default/images/folder_dl.gif Фантастика, фэнтези, ужасы, мистика Наиль Выборнов | Метро 2033: На другой стороне (2018) [FB2] }{@R0N
1 | 0

0 | 464

3

2019-01-12 17:27
}{@R0N Latest
Display posts from previous:    
Reply to topic

The time now is: Today 02:48

All times are GMT + 3 Hours



You cannot post new topics in this forum
You cannot reply to topics in this forum
You cannot edit your posts in this forum
You cannot delete your posts in this forum
You cannot vote in polls in this forum
You cannot attach files in this forum
You cannot download files in this forum