Today is a free download without charge Download

Генеральская сноха / Серии: 01-02 из 02 (Анатолий Матешко) [2012, Мелодрама, HDTV 1080i]

Reply to topic
 
Author
Message

Omen ®

Longevity: 9 years 1 month

Posts: 181086

Торрент-статистика

Post 07-Apr-2013 08:23

[Quote]

Генеральская сноха
Год выпуска: 2012
Производство: Россия, "Новая студия", Кинокомпания "УПС"
Жанр: Мелодрама
Продолжительность: 2 х ~ 01:30:00
Субтитры: Отсутствуют
Режиссёр: Анатолий Матешко
В ролях: Наталья Антонова, Игорь Ботвин, Лариса Кадочникова и другие.
Описание: У Иры Колчиной все складывается как нельзя лучше. Подружки не зря завидуют ей: сам профессор Федоров предложил вчерашней студентке работу в собственной клинике. К тому же скоро Ирина станет генеральской снохой, будет жить в почете и достатке. Но не все сбылось, как мечталось. Главной в семье считается Изольда Генриховна, генеральша. Она искренне считает, что Ирина не должна забывать о том, в какую семью ее "взяли", быть благодарной и вести себя соответственно… Кто же победит в неравной схватке - невестка или свекровь?
Сэмпл: http://multi-up.com/851372
Доп. информация: Релиз -

Рип чистый. Без посторонних надписей. Выкладывается как есть.
Качество: HDTV 1080i
Контейнер: TS
Видео кодек: AVC
Аудио кодек: AC3
Видео: 1920x1080 (16:9) 25.000 fps 7 852 Kbps, 0.151 bit/pixel
Аудио: MPEG Audio 48000Hz stereo 192 Кбит/сек

Скриншоты


MI

GeneralID : 1 (0x1)Complete name : N:\ВЫКЛАДКА\HDTV\Сериалы\Генеральская сноха (2012, Мелодрама, HDTV) (MYDIMKA)\01 серия.tsFormat : MPEG-TSFile size : 5.21 GiBDuration : 1h 28mnOverall bit rate mode : VariableOverall bit rate : 8 449 Kbps
VideoID : 2911 (0xB5F)Menu ID : 1 (0x1)Format : AVCFormat/Info : Advanced Video CodecFormat profile : [email protected] settings, CABAC : YesFormat settings, ReFrames : 3 framesCodec ID : 27Duration : 1h 28mnBit rate : 7 837 KbpsWidth : 1 920 pixelsHeight : 1 080 pixelsDisplay aspect ratio : 16:9Frame rate : 25.000 fpsColor space : YUVChroma subsampling : 4:2:0Bit depth : 8 bitsScan type : MBAFFBits/(Pixel*Frame) : 0.151Stream size : 4.84 GiB (93%)
AudioID : 2912 (0xB60)Menu ID : 1 (0x1)Format : MPEG AudioFormat version : Version 1Format profile : Layer 2Codec ID : 3Duration : 1h 28mnBit rate mode : ConstantBit rate : 192 KbpsChannel(s) : 2 channelsSampling rate : 48.0 KHzCompression mode : LossyStream size : 121 MiB (2%)Language : Russian
Other forum [Profile] [PM]
Display posts from previous:    
Reply to topic

The time now is: Today 06:05

All times are GMT + 3 Hours



You cannot post new topics in this forum
You cannot reply to topics in this forum
You cannot edit your posts in this forum
You cannot delete your posts in this forum
You cannot vote in polls in this forum
You cannot attach files in this forum
You cannot download files in this forum