Today is a free download without charge Download

Discovery: Выжить вдвоем: Бразилия. Заболоченная местность / Dual Survival: Brazil. Flooded Plains (2012) SATRip [выпуск 4]

Reply to topic
 
Author
Message

UndegraundMen ®

Longevity: 7 years 7 months

Posts: 25145

Торрент-статистика

Post 07-Apr-2013 00:06

[Quote]

Discovery: Выжить вдвоем: Бразилия. Заболоченная местность / Dual Survival: Brazil. Flooded Plains (2012) SATRip [выпуск 4]- Русское название: Discovery: Выжить вдвоем: Бразилия. Заболоченная местность
Оригинальное название: Dual Survival: Brazil. Flooded Plains
Режиссер / Телекомпания: Родриго Астиз, Discovery Networks Latin America
Год выпуска: 2012
Жанр: Документальный
Описание:
Пантанал в Бразилии - это одна из крупнейших заболоченных территорий на планете. Здесь господствуют дикие животные. С заходом солнца на охоту выходят местные хищники.Ежегодно туристы со всего мира стекаются сюда ночью, в надежде увидеть кайманов, змей и ягуаров. Погибнуть здесь проще простого: можно умереть от укуса ядовитой змеи, от удушливых объятий анаконды или от нападения ягуара. В таких условиях полковнику Лейту - эксперту по спасению в джунглях, и Лео Роша - эксперту по выживанию в диких условиях, придется нелегко. Они покажут, что может помочь туристам, оказавшимся в таком обособленном как Пантанал регионе, выжить и вернуться домой невредимыми.
Продолжительность: 00:42:10
Перевод: Одноголосый закадровый, профессиональный
Видеокодек: Xvid
Битрейт видео: ~1800 kbps
Размер кадра: 720х400
Качество видео: SATRip
Аудиокодек: MP3, 2 ch.
Битрейт аудио: 128 kbps

MediaInfo:

Формат : AVI
Формат/Информация : Audio Video Interleave
Размер файла : 584 Мбайт
Продолжительность : 42 м.
Общий поток : 1935 Кбит/сек
Программа кодирования : TMPGEnc Video Mastering Works 5 Version. 5.0.6.38
Библиотека кодирования : TMPGEnc Video Mastering Works 5 Version. 5.0.6.38
Видео
Идентификатор : 0
Формат : MPEG-4 Visual
Профиль формата : Advanced [email protected]
Параметр BVOP формата : 2
Параметр QPel формата : Нет
Параметр GMC формата : Без точки перехода
Параметр матрицы формата : Default (H.263)
Режим смешивания : Сжатый битовый поток
Идентификатор кодека : XVID
Идентификатор кодека/Подсказка : XviD
Продолжительность : 42 м.
Битрейт : 1798 Кбит/сек
Ширина : 720 пикс.
Высота : 400 пикс.
Соотношение сторон : 16:9
Частота кадров : 30,000 кадр/сек
Цветовое пространство : YUV
Подвыборка цветности : 4:2:0
Битовая глубина : 8 бит
Тип развёртки : Прогрессивная
Метод сжатия : С потерями
Бит/(Пиксели*Кадры) : 0.208
Размер потока : 542 Мбайт (93%)
Библиотека кодирования : XviD 64
Аудио
Идентификатор : 1
Формат : MPEG Audio
Версия формата : Version 1
Профиль формата : Layer 3
Режим : Joint stereo
Расширение режима : MS Stereo
Идентификатор кодека : 55
Идентификатор кодека/Подсказка : MP3
Продолжительность : 42 м.
Вид битрейта : Постоянный
Битрейт : 128 Кбит/сек
Канал(ы) : 2 канала(ов)
Частота : 48,0 КГц
Метод сжатия : С потерями
Размер потока : 38,6 Мбайт (7%)
Выравнивание : Соединение по промежуткам
Продолжительность промежутка : 250 мс. (7,50 видеокадров)
Время предзагрузки промежутка : 192 ms
[url=/forum/viewtopic.php?t=634408]Выжить вдвоем: Бразилия. Страна каньйонов[/url]
[url=/forum/viewtopic.php?t=638987]Выжить вдвоем: Бразилия. Путь по водам[/url]
[url=/forum/viewtopic.php?t=639033]Выжить вдвоем: Бразилия. Зеленая пустыня[/url]
[url=/forum/viewtopic.php?t=640239]Выжить вдвоем: Бразилия. Заболоченная местность[/url]
Скриншоты:
         
         
Время раздачи: 24/7 ( до первых скачавших, перебои со связью бывают,зависит от провайдера)
Other forum [Profile] [PM]
Display posts from previous:    
Reply to topic

The time now is: Today 14:39

All times are GMT + 3 Hours



You cannot post new topics in this forum
You cannot reply to topics in this forum
You cannot edit your posts in this forum
You cannot delete your posts in this forum
You cannot vote in polls in this forum
You cannot attach files in this forum
You cannot download files in this forum