Сегодня идет свободное скачивание без начисления Download

Собака на сене (1977) [H.264] DVDRip

Ответить на тему
 
Автор
Сообщение

UndegraundMen ®

Стаж: 5 лет 7 месяцев

Сообщений: 25860

Торрент-статистика

Пост 07-Апр-2013 00:06

[Цитировать]

Собака на сене (1977) DVDRip- Русское название: Собака на сене
Год выпуска: 1977
Жанр: Музыкальная комедия
Продолжительность: 02:08:43
Субтитры: Нет
Описание фильма:
Теодоро, секретарь госпожи Дианы, вдовы графа де Бельфер, влюблен в ее горничную - Марселу. Наблюдая за развитием их романа, вздорная и капризная красавица Диана неожиданно для самой себя чувствует болезненные уколы ревности.
Режиссер: Ян Фрид
Актеры:
Маргарита Терехова, Михаил Боярский, Армен Джигарханян, Елена Проклова, Зинаида Шарко, Виктор Ильичев, Игорь Дмитриев, Николай Караченцов, Гелена Ивлиева, Алексей Кожевников, Виталий Леонов, Федор Никитин, Эрнст Романов, Вадим Михайлов, Роман Фурман

Видеокодек: MPEG-4 AVC/H.264
Битрейт видео: ~2000 Kbps
Размер кадра: 720x540
Качество видео: DVDRip
Аудиокодек: AC3 5.1
Битрейт аудио: 256 Kbps

MediaInfo

General
Unique ID : 177293018817150088534136689809745408686 (0x856164B503F1AC1BA65AB20351E272AE)
Complete name : Собака на сене.mkv
Format : Matroska
Format version : Version 4 / Version 2
File size : 2.02 GiB
Duration : 2h 8mn
Overall bit rate : 2 250 Kbps
Movie name : Собака на сене (rip by smithland)
Encoded date : UTC 2010-02-22 21:41:31
Writing application : mkvmerge v5.9.0 ('On The Loose')
Writing library : libebml v1.3.0 + libmatroska v1.4.0
Attachment : Yes
Video
ID : 1
Format : AVC
Format/Info : Advanced Video Codec
Format profile : [url=mailto:[email protected]][email protected][/url]
Format settings, CABAC : Yes
Format settings, ReFrames : 12 frames
Codec ID : V_MPEG4/ISO/AVC
Duration : 2h 8mn
Bit rate : 2 000 Kbps
Width : 720 pixels
Height : 540 pixels
Display aspect ratio : 4:3
Frame rate mode : Constant
Frame rate : 25.000 fps
Color space : YUV
Chroma subsampling : 4:2:0
Bit depth : 8 bits
Scan type : Progressive
Bits/(Pixel*Frame) : 0.206
Stream size : 1.75 GiB (87%)
Writing library : x264 core 130 r2273
Encoding settings : cabac=1 / ref=12 / deblock=1:-1:0 / analyse=0x3:0x133 / me=esa / subme=11 / psy=1 / psy_rd=1.40:0.45 / mixed_ref=0 / me_range=24 / chroma_me=1 / trellis=2 / 8x8dct=1 / cqm=0 / deadzone=21,11 / fast_pskip=1 / chroma_qp_offset=-4 / threads=12 / lookahead_threads=1 / sliced_threads=0 / nr=0 / decimate=1 / interlaced=0 / bluray_compat=0 / constrained_intra=0 / bframes=6 / b_pyramid=2 / b_adapt=1 / b_bias=0 / direct=3 / weightb=1 / open_gop=1 / weightp=2 / keyint=250 / keyint_min=25 / scenecut=60 / intra_refresh=0 / rc_lookahead=40 / rc=abr / mbtree=1 / bitrate=2000 / ratetol=1.0 / qcomp=0.60 / qpmin=10 / qpmax=69 / qpstep=4 / vbv_maxrate=20000 / vbv_bufsize=20000 / nal_hrd=none / ip_ratio=1.40 / aq=1:1.00
Language : Russian
Default : Yes
Forced : Yes
Audio
ID : 2
Format : AC-3
Format/Info : Audio Coding 3
Mode extension : CM (complete main)
Format settings, Endianness : Big
Codec ID : A_AC3
Duration : 2h 8mn
Bit rate mode : Constant
Bit rate : 256 Kbps
Channel(s) : 6 channels
Channel positions : Front: L C R, Side: L R, LFE
Sampling rate : 48.0 KHz
Bit depth : 16 bits
Compression mode : Lossy
Delay relative to video : -80ms
Stream size : 236 MiB (11%)
Language : Russian
Default : Yes
Forced : Yes
Скриншоты:
Исходный DVD
Видеоряд дополнительно очищен от фоновых шумов
         
         
Вне форума [Профиль] [ЛС]
Показать сообщения:    
Ответить на тему

Текущее время: Сегодня 03:59

Часовой пояс: GMT + 3



Вы не можете начинать темы
Вы не можете отвечать на сообщения
Вы не можете редактировать свои сообщения
Вы не можете удалять свои сообщения
Вы не можете голосовать в опросах
Вы не можете прикреплять файлы к сообщениям
Вы не можете скачивать файлы