Today is a free download without charge Download

Снайпер / Sun cheung sau (Данте Лам / Dante Lam) [ 2009 , Гонконг , боевик, триллер, драма , BDRip 1080p]

Reply to topic
 
Author
Message

Delia ®

Gender:

Longevity: 10 years

Posts: 1821

Торрент-статистика

Post 06-Apr-2013 20:47

[Quote]

-СнайперSun cheung sau-- Год выпуска: 2009
Страна: Гонконг
Жанр: боевик, триллер, драма, криминал, приключения
Продолжительность: 01:26:30
Перевод: Профессиональный (многоголосый, закадровый)
Режиссер: Данте Лам / Dante Lam
Сценарий: Вэй Лун ЭнДжи / Wai Lun Ng, Данте Лам / Dante Lam
Продюсер: Кэнди Люн / Candy Leung, Джон Чонг / John Chong, Джанет Чун / Janet Chun, Лоррэйн Хо / Lorraine Ho, Стефен Лам / Stephen Lam
Оператор: Мэн По Чунг / Man Po Cheung

В ролях: Ричи Рен (Hartman, (Fang Keming)), Хуан Сяомин (Lincoln, (Jing / Ching)), Эдисон Чен (OJ, (Chen Xinwei)), Боуи Лам (Shane, (Shan Ge)), Лью Кай Чи (Big Head, (Er Ge)), Джек Као (Tao), Уилфред Лау (Iceman), Манго Вонг (Crystal), Мишель Йе (Mon), Чармэйн Фонг (Kit), Патрик Танг (Chung), Лоуренс Ах Мон (Superintendent)-Описание: Минг известен как лучший стрелок в полиции. Но за легендой скрыт скелет в шкафу: его бывшего коллегу и суперметкого Чина, который был заключен в тюрьму за случайное убийство заложника, освобождают. И только месть по его мнению, способна наказать Минга и полицию, полагая, что они являются подлинными виновниками всех его проблем.-- Бюджет: HKD 30 000 000
Мировая премьера: 7 февраля 2009
Релиз на DVD: 2 декабря 2010, «Парадиз Медиа»
Релиз на Blu-ray: 2 декабря 2010, «Парадиз Медиа»- --
Качество: BDRip от DON
Контейнер: MKV
Видео: AVC, 1920x816 (2.35:1), 13918 kbps, 24 fps, 0,370 bpp
Аудио №1: русский /; AC3 /; 2.0 /; 48 kHz /; 192 kbps /; 16 bit; |многоголосый, закадровый|
Аудио №2: русский /; AC3 /; 2.0 /; 48 kHz /; 192 kbps /; 16 bit; |одноголосый (Медведев)|
Субтитры №1: русские; (форсированные)
Субтитры №2: русские; (полные)
Субтитры №3: английские
Навигация по главам: есть--

Media Info

General
Unique ID : 243662704955382031402127772548473504220 (0xB74FBADFFEC88F83B3CCBB8F3A3741DC)
Complete name : E:\Torrent\Sun.cheung.sau.2009.1080p.BluRay.x264-DON .mkv
Format : Matroska
Format version : Version 4 / Version 2
File size : 8.64 GiB
Duration : 1h 26mn
Overall bit rate : 14.3 Mbps
Encoded date : UTC 2013-04-06 17:00:04
Writing application : mkvmerge v6.0.0 ('Coming Up For Air') built on Jan 20 2013 09:52:00
Writing library : libebml v1.3.0 + libmatroska v1.4.0
Video
ID : 1
Format : AVC
Format/Info : Advanced Video Codec
Format profile : [email protected]
Format settings, CABAC : Yes
Format settings, ReFrames : 4 frames
Codec ID : V_MPEG4/ISO/AVC
Duration : 1h 26mn
Bit rate : 13.9 Mbps
Width : 1 920 pixels
Height : 816 pixels
Display aspect ratio : 2.35:1
Frame rate : 24.000 fps
Color space : YUV
Chroma subsampling : 4:2:0
Bit depth : 8 bits
Scan type : Progressive
Bits/(Pixel*Frame) : 0.370
Stream size : 8.24 GiB (95%)
Writing library : x264 core 67 r1163M 3f56e27
Encoding settings : cabac=1 / ref=4 / deblock=1:-3:-3 / analyse=0x3:0x133 / me=umh / subme=9 / psy_rd=1.0:0.0 / mixed_ref=1 / me_range=64 / chroma_me=1 / trellis=2 / 8x8dct=1 / cqm=2 / deadzone=21,11 / chroma_qp_offset=-2 / threads=12 / nr=0 / decimate=0 / mbaff=0 / bframes=6 / b_pyramid=1 / b_adapt=2 / b_bias=0 / direct=3 / wpredb=1 / keyint=250 / keyint_min=25 / scenecut=40 / rc=2pass / bitrate=13918 / ratetol=1.0 / qcomp=0.60 / qpmin=10 / qpmax=51 / qpstep=4 / cplxblur=20.0 / qblur=0.5 / ip_ratio=1.40 / pb_ratio=1.30 / aq=1:1.20
Language : English
Default : Yes
Forced : No
Audio #1
ID : 2
Format : AC-3
Format/Info : Audio Coding 3
Mode extension : CM (complete main)
Codec ID : A_AC3
Duration : 1h 26mn
Bit rate mode : Constant
Bit rate : 192 Kbps
Channel(s) : 2 channels
Channel positions : Front: L R
Sampling rate : 48.0 KHz
Bit depth : 16 bits
Compression mode : Lossy
Stream size : 119 MiB (1%)
Title : многоголосый, закадровый
Language : Russian
Default : Yes
Forced : No
Audio #2
ID : 3
Format : AC-3
Format/Info : Audio Coding 3
Mode extension : CM (complete main)
Codec ID : A_AC3
Duration : 1h 26mn
Bit rate mode : Constant
Bit rate : 192 Kbps
Channel(s) : 2 channels
Channel positions : Front: L R
Sampling rate : 48.0 KHz
Bit depth : 16 bits
Compression mode : Lossy
Stream size : 119 MiB (1%)
Title : одноголосый (Медведев)
Language : Russian
Default : No
Forced : No
Text #1
ID : 4
Format : UTF-8
Codec ID : S_TEXT/UTF8
Codec ID/Info : UTF-8 Plain Text
Title : форсированные
Language : Russian
Default : Yes
Forced : No
Text #2
ID : 5
Format : UTF-8
Codec ID : S_TEXT/UTF8
Codec ID/Info : UTF-8 Plain Text
Title : полные
Language : Russian
Default : No
Forced : No
Text #3
ID : 6
Format : UTF-8
Codec ID : S_TEXT/UTF8
Codec ID/Info : UTF-8 Plain Text
Language : English
Default : No
Forced : No
Menu
00:00:00.000 : en:00:00:00.000
00:02:41.708 : en:00:02:41.708
00:07:09.583 : en:00:07:09.583
00:11:58.333 : en:00:11:58.333
00:16:13.458 : en:00:16:13.458
00:20:29.417 : en:00:20:29.417
00:25:32.250 : en:00:25:32.250
00:30:24.042 : en:00:30:24.042
00:34:58.500 : en:00:34:58.500
00:39:06.333 : en:00:39:06.333
00:40:31.125 : en:00:40:31.125
00:45:32.292 : en:00:45:32.292
00:49:12.917 : en:00:49:12.917
00:54:54.667 : en:00:54:54.667
00:57:53.875 : en:00:57:53.875
01:00:39.250 : en:01:00:39.250
01:09:31.833 : en:01:09:31.833
01:12:39.792 : en:01:12:39.792
01:16:13.458 : en:01:16:13.458
01:21:55.833 : en:01:21:55.833

Скриншоты

     
     

_________________
Человек – это канат, натянутый между животным и сверхчеловеком, – канат над пропастью.
В человеке ценно то, что он мост, а не цель. Фридрих Ницше
Other forum [Profile] [PM]
Similar theme
Forum Topic Author Torrent Replies Last Post
./templates/default/images/folder_dl.gif Техническая и научно-популярная литература Д.В. Козлитин | Памятка снайперу для совершенствования индивидуального мастерства [1996] [PDF] UndegraundMen
1 | 0

0 | 874

3

2013-07-23 23:02
UndegraundMen Latest
Display posts from previous:    
Reply to topic

The time now is: Today 23:49

All times are GMT + 3 Hours



You cannot post new topics in this forum
You cannot reply to topics in this forum
You cannot edit your posts in this forum
You cannot delete your posts in this forum
You cannot vote in polls in this forum
You cannot attach files in this forum
You cannot download files in this forum