Today is a free download without charge Download

Фродя / Серии: 01-02 из 02 (Алина Чеботарёва) [2012, Мелодрама, HDTV 1080i]

Reply to topic
 
Author
Message

Omen ®

Longevity: 9 years 1 month

Posts: 181086

Торрент-статистика

Post 06-Apr-2013 19:59

[Quote]

Фродя
Год выпуска: 2012
Производство: Россия, "Медиапрофсоюз"
Жанр: Мелодрама
Продолжительность: 2 х ~ 01:30:00
Субтитры: Отсутствуют
Режиссёр: Алина Чеботарёва
В ролях: Ксения Кузнецова, Сергей Горобченко, Фёдор Гуринец, Наталья Хорохорина, Алеся Пуховая, Андрей Дебрин и другие.
Описание: Когда-то у Афродиты был любимый человек. Но видно быть вместе им не судьба. Он приревновал ее к другому и уехал в город. Больше не возвращался. Шли годы. Фродя, теперь так все ее зовут, ждала, продолжала любить, но ничего не менялось в ее жизни. Она оставалась одна и не было ни одного дня счастья в ее жизни. Но вот Павел возвращается, но не один, а привозит с собой своих трех детей. И Фродя чувствует, что любовь к Павлу не прошла. Будут ли наконец-то вместе главные герои и как сложится на этот раз их совместная судьба?
Сэмпл: http://multi-up.com/851192
Доп. информация: Релиз -

Рип чистый (Прямой поток). Без посторонних надписей. Выкладывается как есть.
Качество: HDTV 1080i
Контейнер: TS
Видео кодек: AVC
Аудио кодек: AC3
Видео: 1920x1080 (16:9) 25.000 fps 7 856 Kbps, 0.151 bit/pixel
Аудио: MPEG Audio 48000Hz stereo 192 Кбит/сек

Скриншоты

MI

GeneralID : 1 (0x1)Complete name : N:\ВЫКЛАДКА\HDTV\Сериалы\Фродя (2013, Мелодрама, HDTV) (MYDIMKA)\01 серия.tsFormat : MPEG-TSFile size : 4.68 GiBDuration : 1h 19mnOverall bit rate mode : VariableOverall bit rate : 8 444 Kbps
VideoID : 2911 (0xB5F)Menu ID : 1 (0x1)Format : AVCFormat/Info : Advanced Video CodecFormat profile : [email protected] settings, CABAC : YesFormat settings, ReFrames : 3 framesCodec ID : 27Duration : 1h 19mnBit rate : 7 833 KbpsWidth : 1 920 pixelsHeight : 1 080 pixelsDisplay aspect ratio : 16:9Frame rate : 25.000 fpsColor space : YUVChroma subsampling : 4:2:0Bit depth : 8 bitsScan type : MBAFFBits/(Pixel*Frame) : 0.151Stream size : 4.34 GiB (93%)
AudioID : 2912 (0xB60)Menu ID : 1 (0x1)Format : MPEG AudioFormat version : Version 1Format profile : Layer 2Mode : Joint stereoMode extension : Intensity Stereo + MS StereoCodec ID : 3Duration : 1h 19mnBit rate mode : ConstantBit rate : 192 KbpsChannel(s) : 2 channelsSampling rate : 48.0 KHzCompression mode : LossyStream size : 109 MiB (2%)Language : Russian
Other forum [Profile] [PM]
Display posts from previous:    
Reply to topic

The time now is: Today 23:27

All times are GMT + 3 Hours



You cannot post new topics in this forum
You cannot reply to topics in this forum
You cannot edit your posts in this forum
You cannot delete your posts in this forum
You cannot vote in polls in this forum
You cannot attach files in this forum
You cannot download files in this forum