Today is a free download without charge Download

Кажется, я люблю свою жену / I Think I Love My Wife (Крис Рок / Chris Rock) [2007, США, Индия, комедия, мелодрама, WEB-DL 720p] MVO + DVO + Sub (Rus, Eng) + Original Eng

Reply to topic
 
Author
Message

Omen ®

Longevity: 8 years 5 months

Posts: 181087

Торрент-статистика

Post 06-Apr-2013 19:59

[Quote]

Кажется, я люблю свою жену / I Think I Love My Wife- Страна: США, Индия
Жанр: комедия, мелодрама
Год выпуска: 2007
Продолжительность: 01:33:39
Перевод 1: Профессиональный (многоголосый закадровый)
Перевод 2: Любительский (двухголосый закадровый)
Cубтитры: русские, английские
Оригинальная аудиодорожка: английский-Режиссер: Крис Рок / Chris Rock
В ролях: Крис Рок, Керри Вашингтон, Джина Торрес, Стив Бушеми, Эдвард Херрманн, Уэлкер Уайт, Саманта Айверс, Майкл К. Уильямс, Кассандра Фриман, Стефен А. Смит-Описание: Главный герой Ричард Купер имеет хорошую работу, жену и двух детей. Но ему скучно, и совместное посещение с женой психолога не помогают. Из прошлого в настоящее возвращается его подруга, которая предоставляет ему шанс переосмыслить многое в своей жизни, или просто изменить своей жене.- -Тип релиза: WEB-DL 720p
Контейнер: MKV
Видео: AVC, 1280x720, ~4000 Kbps, 23.976 fps
Аудио 1: AC3, 48000 Hz, 384 Kbps, 5.1 ch - MVO
Аудио 2: AC3, 48000 Hz, 448 Kbps, 5.1 ch - DVO
Аудио 3: AC3, 48000 Hz, 384 Kbps, 5.1 ch - ENG
Формат субтитров: softsub (SRT) - русские, английские-

Скриншоты


Резервные скриншоты



-

MediaInfo

Format : MatroskaFormat version : Version 4 / Version 2File size : 3.47 GiBDuration : 1h 33mnOverall bit rate : 5 302 KbpsMovie name : Кажется, я люблю свою жену / I Think I Love My Wife (2007) Web-DL 720pEncoded date : UTC 2013-04-06 14:37:21Writing application : mkvmerge v6.1.0 ('Old Devil') built on Mar 2 2013 14:32:37Writing library : libebml v1.3.0 + libmatroska v1.4.0Attachment : Yes
VideoID : 1Format : AVCFormat/Info : Advanced Video CodecFormat profile : [email protected] settings, CABAC : NoFormat settings, ReFrames : 2 framesCodec ID : V_MPEG4/ISO/AVCDuration : 1h 33mnBit rate : 3 980 KbpsWidth : 1 280 pixelsHeight : 720 pixelsDisplay aspect ratio : 16:9Frame rate : 23.976 fpsColor space : YUVChroma subsampling : 4:2:0Bit depth : 8 bitsScan type : ProgressiveBits/(Pixel*Frame) : 0.180Stream size : 2.60 GiB (75%)Title : RG Torrents.ruLanguage : EnglishDefault : YesForced : NoColor primaries : BT.709-5, BT.1361, IEC 61966-2-4, SMPTE RP177Transfer characteristics : BT.709-5, BT.1361Matrix coefficients : BT.709-5, BT.1361, IEC 61966-2-4 709, SMPTE RP177
Audio #1ID : 2Format : AC-3Format/Info : Audio Coding 3Mode extension : CM (complete main)Codec ID : A_AC3Duration : 1h 33mnBit rate mode : ConstantBit rate : 384 KbpsChannel(s) : 6 channelsChannel positions : Front: L C R, Side: L R, LFESampling rate : 48.0 KHzBit depth : 16 bitsCompression mode : LossyStream size : 257 MiB (7%)Title : MVOLanguage : RussianDefault : YesForced : No
Audio #2ID : 3Format : AC-3Format/Info : Audio Coding 3Mode extension : CM (complete main)Codec ID : A_AC3Duration : 1h 33mnBit rate mode : ConstantBit rate : 448 KbpsChannel(s) : 6 channelsChannel positions : Front: L C R, Side: L R, LFESampling rate : 48.0 KHzBit depth : 16 bitsCompression mode : LossyStream size : 300 MiB (8%)Title : DVOLanguage : RussianDefault : NoForced : No
Audio #3ID : 4Format : AC-3Format/Info : Audio Coding 3Mode extension : CM (complete main)Codec ID : A_AC3Duration : 1h 33mnBit rate mode : ConstantBit rate : 384 KbpsChannel(s) : 6 channelsChannel positions : Front: L C R, Side: L R, LFESampling rate : 48.0 KHzBit depth : 16 bitsCompression mode : LossyStream size : 257 MiB (7%)Title : ENGLanguage : EnglishDefault : NoForced : No
Text #1ID : 5Format : UTF-8Codec ID : S_TEXT/UTF8Codec ID/Info : UTF-8 Plain TextLanguage : RussianDefault : NoForced : No
Text #2ID : 6Format : UTF-8Codec ID : S_TEXT/UTF8Codec ID/Info : UTF-8 Plain TextLanguage : EnglishDefault : NoForced : No
Menu00:00:00.000 : en:Main Titles/One Problem00:05:14.000 : en:Just Looking00:10:48.000 : en:Temptation00:14:16.000 : en:When You're Single…00:17:16.000 : en:Late Lunch00:19:33.000 : en:Panties00:22:20.000 : en:Feeding the Fish00:25:27.000 : en:Couples Dinner00:27:58.000 : en:Tired of You00:34:52.000 : en:The Auto Show00:41:37.000 : en:Just a Friend00:51:21.000 : en:Probation01:00:21.000 : en:Clearing His Head01:05:26.000 : en:George's Advice01:09:14.000 : en:Just a Pinch01:13:43.000 : en:Nikki Returns01:19:27.000 : en:Choices01:22:08.000 : en:A Proper Goodbye01:26:07.000 : en:I Think I Love My Wife01:29:05.000 : en:End Titles
-
Other forum [Profile] [PM]
Display posts from previous:    
Reply to topic

The time now is: Today 05:55

All times are GMT + 3 Hours



You cannot post new topics in this forum
You cannot reply to topics in this forum
You cannot edit your posts in this forum
You cannot delete your posts in this forum
You cannot vote in polls in this forum
You cannot attach files in this forum
You cannot download files in this forum